Скачать через торрент музыку Мальчик и пираты The Boy And The Pirates бесплатно без регистрации torrent

Если у вас наблюдаются проблемы со скриншотами, переходом по ссылками, скачиванием торрентов - проблемы в блокировщике рекламы AdBlock. #хорошегоДня!


Статистика раздачи
Размер:  203 MB   |    Зарегистрирован:  9 месяцев   |    .torrent скачан:  23 раза   |   
Раздают:  1  
   
Загрузка...
 
Автор Сообщение

Galfimbul

avatar Galfimbul


Мальчик и пираты / The Boy And The Pirates

Жанр: Score
Композитор: Albert Glasser
Год выпуска диска: 2010
Год выпуска фильма: 1960
Производитель диска: USA
Издатель (лейбл): Kritzerland
Номер по каталогу: KR 20015-8

Аудиокодек: FLAC (*.flac)
Тип рипа: image+.cue
Битрейт аудио: lossless
Продолжительность: 32:23
Источник: собственный рип
Наличие сканов в содержимом раздачи: да (600 dpi)

Треклист
01. Main Title / Playing On The Beach [02:03.20]
02. Jimmy The Pirate / Kathy Digs / The Wish [00:52.51]
03. Abu The Genie / The Pirate Ship / Blackbeard [02:58.56]
04. Rum Into Milk / Get Ready For Action / Pink Fog [02:54.32]
05. Changing Course / Battle At Sea [01:55.27]
06. Katrina Captured [01:59.25]
07. At Sea / Hiding / Bubble Gum Grub [01:39.74]
08. Changing Course Again / Revolting Pirates [02:44.66]
09. A Bounty Of Mutiny / I'll Make Him Tell [02:21.15]
10. We've Gotta Get Out Of Here [02:18.25]
11. Jimmy And Katrina Escape / Blackbeard In Pursuit [02:49.56]
12. Back To The Present / End Title [01:36.13]

Bonus Track
13. Attack Of The Puppet People [06:08.30]
Exact Audio Copy V1.0 beta 3 from 29. August 2011

EAC extraction logfile from 20. April 2013, 19:37

Albert Glasser / The Boy And The Pirates

Used drive : TSSTcorpCDDVDW SH-S202H Adapter: 0 ID: 0

Read mode : SecureUtilize accurate stream : YesDefeat audio cache : YesMake use of C2 pointers : No

Read offset correction : 6Overread into Lead-In and Lead-Out : NoFill up missing offset samples with silence : YesDelete leading and trailing silent blocks : NoNull samples used in CRC calculations : YesUsed interface : Native Win32 interface for Win NT & 2000

Used output format : Internal WAV RoutinesSample format : 44.100 Hz; 16 Bit; Stereo

TOC of the extracted CD

Track | Start | Length | Start sector | End sector --------------------------------------------------------- 1 | 0:00.00 | 2:03.20 | 0 | 9244 2 | 2:03.20 | 0:52.51 | 9245 | 13195 3 | 2:55.71 | 2:58.56 | 13196 | 26601 4 | 5:54.52 | 2:54.32 | 26602 | 39683 5 | 8:49.09 | 1:55.27 | 39684 | 48335 6 | 10:44.36 | 1:59.25 | 48336 | 57285 7 | 12:43.61 | 1:39.74 | 57286 | 64784 8 | 14:23.60 | 2:44.66 | 64785 | 77150 9 | 17:08.51 | 2:21.15 | 77151 | 87740 10 | 19:29.66 | 2:18.25 | 87741 | 98115 11 | 21:48.16 | 2:49.56 | 98116 | 110846 12 | 24:37.72 | 1:36.13 | 110847 | 118059 13 | 26:14.10 | 6:08.30 | 118060 | 145689

Range status and errors

Selected range

Filename D:\Albert Glasser - The Boy And The Pirates\Albert Glasser - The Boy And The Pirates.wav

Peak level 95.5 % Extraction speed 2.4 X Range quality 99.9 % Test CRC 9B258584 Copy CRC 9B258584 Copy OK

No errors occurred

AccurateRip summary

Track 1 accurately ripped (confidence 4) [F7004AA6] (AR v1)Track 2 accurately ripped (confidence 4) [9BC165CE] (AR v1)Track 3 accurately ripped (confidence 4) [59FCF79F] (AR v1)Track 4 accurately ripped (confidence 4) [81F5C721] (AR v1)Track 5 accurately ripped (confidence 4) [CAEF1933] (AR v1)Track 6 accurately ripped (confidence 4) [DB172D35] (AR v1)Track 7 accurately ripped (confidence 4) [4B7FD273] (AR v1)Track 8 accurately ripped (confidence 4) [D0BBD777] (AR v1)Track 9 accurately ripped (confidence 4) [461E1884] (AR v1)Track 10 accurately ripped (confidence 4) [103C6D28] (AR v1)Track 11 accurately ripped (confidence 4) [F702D3F7] (AR v1)Track 12 accurately ripped (confidence 4) [EF97D620] (AR v1)Track 13 accurately ripped (confidence 4) [85BEAB2E] (AR v1)

All tracks accurately ripped

End of status report

==== Log checksum F87DA5CE63312E90FA7212678E18B5A1246DA3668E20D8D255D60442CFAFB7D3 ====
Вниманию почтенной публики представляем нового композитора - Альберта Глассер.
Сегодня - его музыка к детскому фильму "великого и ужасного" мистера БИГа (Берта Гордона) - Мальчик и пираты.
В самом фильме музыку часто использовали в нескольких сценах, но оригинальной музыки было написано очень мало.
Поэтому, чтобы "растянуть" альбом хотя бы до 30 минут, было решено добавить сюиту из другого фильма - Нападение людей-кукол. Кстати, возможно - это единственный шанс услышать эту музыку, поскольку еще в 2010 году нормальных пленок не удалось найти, и были использованы личные копии композитора. Но так как они были не в лучшем качестве, то для сюиты были выбраны наименее пострадавшие фрагменты.



Трекер:  [ 28-Фев-2017 20:30 ]

  

Скачать .torrent

Размер .torrent файла 17 KB


Размер: 203 MB
Хэш (hash) релиза: cfade273e5549f22ad417d6a47ded28f0b639aff

Торренты, похожие на Мальчик и пираты The Boy And The Pirates скачать торрент

Форум Название Автор Размер S L Добавлен
Саундтреки к фильмам и мультфильмам (mp3) ·· (Score) Мальчик и пираты / The Boy And The Pirates (by Albert Glasser) - 2010 (1960), MP3, 320 kbps Galfimbul 7776642974 MB 0 0 1488307589

21:46

28-Фев-17

Еще никто не оставлял запись к записи скачать торрент Мальчик и пираты The Boy And The Pirates . Будь первым!

!Обратная связь