Скачать через торрент Джевелпет Перезвон Jewelpet Tinkle бесплатно Аниме Все серии на русском torrent

Если у вас наблюдаются проблемы со скриншотами, переходом по ссылками, скачиванием торрентов - проблемы в блокировщике рекламы AdBlock. #хорошегоДня!


Статистика раздачи
Размер:  17.33 GB   |    Зарегистрирован:  9 месяцев   |    .torrent скачан:  16 раз   |   
Раздают:  1  
   
Загрузка...
 
Автор Сообщение

Galfimbul

avatar Galfimbul


Джевелпет Перезвон / Jewelpet Tinkle / Jewel Pet Tinkle [TV] + Special [1 из 1]

Страна: Япония
Год выпуска: 2010 г.
Жанр: комедия, махо-сёдзё, сёдзё
Тип: TV
Продолжительность: 52+1 эп., ~25 мин. серия
Режиссер: Ямамото Такаси
Студия: Studio Comet

Описание: Ученица начальной школы Сакура Акари в начале учебного года встречает говорящего кролика Руби. Руби сообщает ей, что пришла из волшебной страны Джевелленда, и приглашает Акари учиться волшебству в Магической академии. С этого дня начинаются весёлые, а порой и опасные приключения Руби и Акари, в процессе которых они научатся магии и найдут немало хороших друзей.

Качество: HDTVRip
Тип релиза: Без хардсаба
Формат видео: MP4
Наличие линковки: Нет
Релиз/Автор рипа: Leopard-Raws
Видео: avc1 -> H264/AVC, 1280x720, 23.976 VFR, 1882 kbps
Аудио: A_AAC/MPEG4/LC, 160 kbps, 48000 Hz, Stereo Язык Японский ; Озвучка: оригинальная
Субтитры: внешние Язык субтитров русский ; Перевод: VZbitten
Субтитры 2: внешние Язык субтитров английский ; Перевод 2: Critter-Subs

Информация об аниме на:

World Art
AniDB
MyAnimeList

Раздача обновлена, обновите торрент-файл! Добавлен дополнительный эпизод.
<div class="sp-wrap">
<div class="sp-head folded">AVdump</div>
<div class="sp-body">

File: H:\Anime\Jewelpet Tinkle\[Leopard-Raws] Jewelpet Tinkle - 01 RAW (TX 1280x720 x264 AAC).mp4Duration: 00:24:40 (1479.79)Track #1: video lang: Unknown (1) codc: avc1 -> H264/AVC (22) reso: 1280x720 -> 16:9 fram: vfr rate: 1858 kbps (1858.49) dura: 00:24:40 (1479.69) size: 0.00 B (0)Track #2: audio lang: ja -> Japanese (2) codc: A_AAC/MPEG4/LC -> AAC (9) chan: 2 -> Stereo samp: 48000 Hz rate: 160 kbps (160.01) dura: 00:24:40 (1479.79) size: 0.00 B (0)Sizes: (check sanity) disk: 356.70 MB (374024725) trac: 0.00 B (0) [based on track size] bitr: 356.05 MB (373341611) [based on bitrate] tdif: 356.70 MB (374024725) 100.00% bdif: 667.10 KB (683113) 0.18%
GeneralComplete name : H:\Anime\Jewelpet Tinkle\[Leopard-Raws] Jewelpet Tinkle - 01 RAW (TX 1280x720 x264 AAC).mp4Format : MPEG-4Format profile : Base MediaCodec ID : isomFile size : 357 MiBDuration : 24mn 39sOverall bit rate mode : VariableOverall bit rate : 2 022 KbpsEncoded date : UTC 2010-04-02 11:50:41Tagged date : UTC 2010-04-02 11:50:41VideoID : 1Format : AVCFormat/Info : Advanced Video CodecFormat profile : High@L4.0Format settings, CABAC : YesFormat settings, ReFrames : 3 framesCodec ID : avc1Codec ID/Info : Advanced Video CodingDuration : 24mn 39sBit rate : 1 858 KbpsMaximum bit rate : 8 025 KbpsWidth : 1 280 pixelsHeight : 720 pixelsDisplay aspect ratio : 16:9Frame rate mode : VariableFrame rate : 23.976 fpsMinimum frame rate : 23.976 fpsMaximum frame rate : 47.952 fpsColor space : YUVChroma subsampling : 4:2:0Bit depth : 8 bitsScan type : ProgressiveBits/(Pixel*Frame) : 0.084Stream size : 328 MiB (92%)Writing library : x264 core 75 r1246 5b3c89cEncoding settings : cabac=1 / ref=3 / deblock=1:-2:-2 / analyse=0x3:0x133 / me=umh / subme=9 / psy=1 / psy_rd=0.5:0.0 / mixed_ref=1 / me_range=32 / chroma_me=1 / trellis=2 / 8x8dct=1 / cqm=0 / deadzone=21,11 / chroma_qp_offset=-2 / threads=3 / nr=0 / decimate=1 / mbaff=0 / bframes=2 / b_pyramid=0 / b_adapt=2 / b_bias=0 / direct=3 / wpredb=1 / keyint=240 / keyint_min=1 / scenecut=40 / rc_lookahead=36 / rc=crf / mbtree=1 / crf=20.0 / qcomp=0.60 / qpmin=10 / qpmax=51 / qpstep=8 / ip_ratio=1.40 / aq=1:1.00Encoded date : UTC 2010-04-02 11:50:24Tagged date : UTC 2010-04-02 11:50:50AudioID : 2Format : AACFormat/Info : Advanced Audio CodecFormat profile : LCCodec ID : 40Duration : 24mn 39sBit rate mode : VariableBit rate : 160 KbpsMaximum bit rate : 213 KbpsChannel(s) : 2 channelsChannel positions : Front: L RSampling rate : 48.0 KHzCompression mode : LossyStream size : 28.2 MiB (8%)Language : JapaneseEncoded date : UTC 2010-04-02 11:50:32Tagged date : UTC 2010-04-02 11:50:50
</div>
</div>
1 - Акари и Руби - 25m - 03.04.2010
2 - Драгоценный камень мечты - 25m - 10.04.2010
3 - Секрет Лабры - 25m - 17.04.2010
4 - Магия Мирии - 25m - 24.04.2010
5 - Уменьшившиеся и исчезнувшие - 25m - 01.05.2010
6 - Магические товары почтой - 25m - 08.05.2010
7 - Магия лунной ночи - 25m - 15.05.2010
8 - Колокол Дин-Дон - 25m - 22.05.2010
9 - Первый экзамен - 25m - 29.05.2010
10 - Таинственная ночь - 25m - 05.06.2010
11 - Папина работа - 25m - 12.06.2010
12 - Манга и мечты - 25m - 19.06.2010
13 - Секрет Леона - 25m - 26.06.2010
14 - Песня Мирии - 25m - 03.07.2010
15 - Сладкая битва - 25m - 10.07.2010
16 - Появление конкурентов!? - 25m - 17.07.2010
17 - Радужный бросок - 25m - 24.07.2010
18 - Тест старой леди - 25m - 31.07.2010
19 - Никола и Титан - 25m - 07.08.2010
20 - Десятикратная магия - 25m - 14.08.2010
21 - Кто есть кто - 25m - 21.08.2010
22 - Время лета! Время пляжа! - 25m - 28.08.2010
23 - Таинственный волшебник - 25m - 04.09.2010
24 - Тайна старого здания академии - 25m - 11.09.2010
25 - Запретное заклинание - 25m - 18.09.2010
26 - Заклинание улыбки - 25m - 25.09.2010
27 - Лагерь по рисованию манги - 25m - 02.10.2010
28 - Волшебные ноты - 25m - 09.10.2010
29 - Мужская битва - 25m - 16.10.2010
30 - Фото на память - 25m - 23.10.2010
31 - Сара и Сафи - 25m - 30.10.2010
32 - Магический спортивный фестиваль - 25m - 06.11.2010
33 - В след за мечтой - 25m - 13.11.2010
34 - Взвешенные решения - 25m - 20.11.2010
35 - Вспыльчивый Кохаку - 25m - 27.11.2010
36 - Алма и Юума - 25m - 04.12.2010
37 - Крик Алмы - 25m - 11.12.2010
38 - Печать цветка - 25m - 18.12.2010
39 - Снежная ночь - 25m - 25.12.2010
40 - Сверкающая круглая штуковина - 25m - 02.01.2011
41 - Грибной лес - 25m - 08.01.2011
42 - Гран-При начинается! - 25m - 15.01.2011
43 - Леон и Никола - 25m - 22.01.2011
44 - Платье Мечты - 25m - 29.01.2011
45 - Великолепный любовный план - 25m - 05.02.2011
46 - Поворот за поворотом - 25m - 12.02.2011
47 - Таинственная девочка - 25m - 19.02.2011
48 - Акари и Мирия - 25m - 26.02.2011
49 - Удар Сары - 25m - 05.03.2011
50 - Последнее заклинание - 25m - 19.03.2011
51 - Сияющее чудо - 25m - 26.03.2011
52 - Три желания - 25m - 02.04.2011
Special - Радуга улыбок - 25m - 21.07.2013


Трекер:  [ 07-Мар-2017 21:00 ]

  

Скачать .torrent

Размер .torrent файла 63 KB


Размер: 17.33 GB
Хэш (hash) релиза: 00526c368686aa6afc1083cf749ad278577a0685
Подписка на обновления:

Еще никто не оставлял запись к записи скачать торрент Джевелпет Перезвон Jewelpet Tinkle . Будь первым!

!Обратная связь