+ Yuki no Taiyou + Akadou Suzunosuke torrent

, , - AdBlock. #!


22.92 GB   |    :  9    |    .torrent :  21    |   
1  
   
...
 

Galfimbul

avatar Galfimbul


The Collected Works of Hayao Miyazaki Bonus Disc 1 / - 1 宮崎駿監督作品集 特典ディスクYuki no Taiyou / ユキの太陽 / Yuki's Sun
:
: 1972 .
: ,
: Special (Pilot)
: 5 .
:
: TMS

: Blu-ray
:
: M2TS
: MPEG-4 AVC Video / 1920x1080 / 37325 kbps / 23,976 fps / High Profile 4.1
1: LPCM Audio 2.0 / 48 kHz / 2304 kbps / 24-bit
1: ,
2: , [BurniN∙SnikerS]:
, , . , , . . . , . , , -. , , , . , . . Ÿ . , . . . . .. :
, "Shojo Friend" 1963 , , , , , " ". .
, 10- - , . . , . , , , , . , . , . , , . , , , , . . , , . , , , , . . , . , , . , , , . , . . . . , , , . . .
, .
, , , , .
( ) , " " 2001 .
, 2013 , , , , " ".
Akadou Suzunosuke / 赤胴鈴之助 / Little Samurai
:
: 1972 .
: ,
: TV
: 75 . (3 25 .)
:
: TMS Fuji Television

: Blu-ray
:
: M2TS
: MPEG-4 AVC Video / 1920x1080 / 37297 kbps / 23,976 fps / High Profile 4.1
1: LPCM Audio 2.0 / 48 kHz / 2304 kbps / 24-bit
1: ,
2: , [BurniN∙SnikerS]:
́ (c XIX ). , , , . , . , , " ", . , , , , , , " " , .. :
, . 1954 , , , , , .
- , (195859) , , . " ", " ".
(. "") , , . , , , (. "").
, 27 , , , , , .
, . III " ".
2

, , ,





: TFloater, amd1100t, nyichiban10
- " ". 36- BD- KDM ( ) .
.
Sonic Scenarist 5.7.2. Sony PlayStation 3 PowerDVD 12.
Disc Title: MIYAZAKI_BONUS_1Disc Size: 24 605 153 795 bytesProtection: AACSBD-Java: NoBDInfo: 0.5.8

Notes:

BDINFO HOME: Cinema Squid http://www.cinemasquid.com/blu-ray/tools/bdinfo

INCLUDES FORUMS REPORT FOR: AVS Forum Blu-ray Audio and Video Specifications Thread http://www.avsforum.com/avs-vb/showthread.php?t=1155731

********************PLAYLIST: 00000.MPLS********************

<--- BEGIN FORUMS PASTE --->

Total Video
Title Codec Length Movie Size Disc Size Bitrate Bitrate Main Audio Track Secondary Audio Track
----- ------ ------- -------------- -------------- ------- ------- ------------------ ---------------------
00000.MPLS AVC 0:00:50 34241280 24605153795 5.40 4.86 DD AC3 2.0 192Kbps
DISC INFO:

Disc Title: MIYAZAKI_BONUS_1
Disc Size: 24605153795 bytes
Protection: AACS
BD-Java: No
BDInfo: 0.5.8

PLAYLIST REPORT:

Name: 00000.MPLS
Length: 0:00:50.717 (h:m:s.ms)
Size: 34241280 bytes
Total Bitrate: 5.40 Mbps

VIDEO:

Codec Bitrate Description
----- ------- -----------
MPEG-4 AVC Video 4864 kbps 1080p / 23.976 fps / 16:9 / High Profile 4.1

AUDIO:

Codec Language Bitrate Description
----- -------- ------- -----------
Dolby Digital Audio Japanese 192 kbps 2.0 / 48 kHz / 192 kbps / DN -4dB

FILES:

Name Time In Length Size Total Bitrate
---- ------- ------ ---- -------------
00000.M2TS 0:00:00.000 0:00:12.137 2964864 1948
00001.M2TS 0:00:12.137 0:00:10.009 18044928 14422
00002.M2TS 0:00:22.147 0:00:18.518 10371072 4480
00003.M2TS 0:00:40.665 0:00:10.051 2860416 2267

CHAPTERS:

Number Time In Length Avg Video Rate Max 1-Sec Rate Max 1-Sec Time Max 5-Sec Rate Max 5-Sec Time Max 10Sec Rate Max 10Sec Time Avg Frame Size Max Frame Size Max Frame Time
------ ------- ------ -------------- -------------- -------------- -------------- -------------- -------------- -------------- -------------- -------------- --------------
1 0:00:00.000 0:00:12.137 1605 kbps 5273 kbps 00:00:01.000 2039 kbps 00:00:00.792 1870 kbps 00:00:01.000 8394 bytes 142334 bytes 00:00:02.877
2 0:00:12.137 0:00:10.009 13467 kbps 15000 kbps 00:00:21.104 15000 kbps 00:00:17.100 13467 kbps 00:00:12.137 70209 bytes 78207 bytes 00:00:22.105
3 0:00:22.147 0:00:18.518 3999 kbps 13518 kbps 00:00:38.538 5101 kbps 00:00:22.605 4394 kbps 00:00:22.605 20848 bytes 243057 bytes 00:00:36.244
4 0:00:40.665 0:00:10.051 1867 kbps 4959 kbps 00:00:40.707 1906 kbps 00:00:40.665 1875 kbps 00:00:40.665 9817 bytes 138909 bytes 00:00:43.334

STREAM DIAGNOSTICS:

File PID Type Codec Language Seconds Bitrate Bytes Packets
---- --- ---- ----- -------- -------------- -------------- ------------- -----
00000.M2TS 4113 (0x1011) 0x1B AVC 12.012 1592 2391001 13133
00000.M2TS 4352 (0x1100) 0x81 AC3 jpn (Japanese) 12.012 195 292608 1905
00001.M2TS 4113 (0x1011) 0x1B AVC 9.885 13672 16893559 92039
00001.M2TS 4352 (0x1100) 0x81 AC3 jpn (Japanese) 9.885 195 241152 1570
00002.M2TS 4113 (0x1011) 0x1B AVC 18.393 4019 9239512 50473
00002.M2TS 4352 (0x1100) 0x81 AC3 jpn (Japanese) 18.393 193 444672 2895
00003.M2TS 4113 (0x1011) 0x1B AVC 9.968 1899 2366153 12974
00003.M2TS 4352 (0x1100) 0x81 AC3 jpn (Japanese) 9.968 194 241920 1575
<pre>
<---- END FORUMS PASTE ---->

QUICK SUMMARY:

Disc Title: MIYAZAKI_BONUS_1Disc Size: 24 605 153 795 bytesProtection: AACSBD-Java: NoPlaylist: 00000.MPLSSize: 34 241 280 bytesLength: 0:00:50.717Total Bitrate: 5.40 MbpsVideo: MPEG-4 AVC Video / 4864 kbps / 1080p / 23.976 fps / 16:9 / High Profile 4.1Audio: Japanese / Dolby Digital Audio / 2.0 / 48 kHz / 192 kbps / DN -4dB

********************PLAYLIST: 00001.MPLS********************

<--- BEGIN FORUMS PASTE --->
</pre>
Total Video
Title Codec Length Movie Size Disc Size Bitrate Bitrate Main Audio Track Secondary Audio Track
----- ------ ------- -------------- -------------- ------- ------- ------------------ ---------------------
00001.MPLS AVC 0:04:54 1533696000 24605153795 41.60 37.32 LPCM 2.0 2304Kbps (48kHz/24-bit)
DISC INFO:

Disc Title: MIYAZAKI_BONUS_1
Disc Size: 24605153795 bytes
Protection: AACS
BD-Java: No
BDInfo: 0.5.8

PLAYLIST REPORT:

Name: 00001.MPLS
Length: 0:04:54.961 (h:m:s.ms)
Size: 1533696000 bytes
Total Bitrate: 41.60 Mbps

VIDEO:

Codec Bitrate Description
----- ------- -----------
MPEG-4 AVC Video 37325 kbps 1080p / 23.976 fps / 16:9 / High Profile 4.1

AUDIO:

Codec Language Bitrate Description
----- -------- ------- -----------
LPCM Audio Japanese 2304 kbps 2.0 / 48 kHz / 2304 kbps / 24-bit

SUBTITLES:

Codec Language Bitrate Description
----- -------- ------- -----------
Presentation Graphics English 36.672 kbps
Presentation Graphics Russian 72.329 kbps

FILES:

Name Time In Length Size Total Bitrate
---- ------- ------ ---- -------------
00004.M2TS 0:00:00.000 0:04:54.961 1533696000 41597

CHAPTERS:

Number Time In Length Avg Video Rate Max 1-Sec Rate Max 1-Sec Time Max 5-Sec Rate Max 5-Sec Time Max 10Sec Rate Max 10Sec Time Avg Frame Size Max Frame Size Max Frame Time
------ ------- ------ -------------- -------------- -------------- -------------- -------------- -------------- -------------- -------------- -------------- --------------
1 0:00:00.000 0:04:53.960 37452 kbps 53134 kbps 00:00:07.507 44229 kbps 00:01:21.664 42148 kbps 00:01:21.748 195227 bytes 461666 bytes 00:02:03.748
2 0:04:53.960 0:00:01.000 78 kbps 0 kbps 00:00:00.000 0 kbps 00:00:00.000 0 kbps 00:00:00.000 426 bytes 535 bytes 00:04:54.919

STREAM DIAGNOSTICS:

File PID Type Codec Language Seconds Bitrate Bytes Packets
---- --- ---- ----- -------- -------------- -------------- ------------- -----
00004.M2TS 4113 (0x1011) 0x1B AVC 294.836 37341 1376167486 7483273
00004.M2TS 4352 (0x1100) 0x80 LPCM jpn (Japanese) 294.836 2311 85187336 471952
00004.M2TS 4608 (0x1200) 0x90 PGS eng (English) 294.836 37 1352101 7750
00004.M2TS 4609 (0x1201) 0x90 PGS rus (Russian) 294.836 72 2666777 15131
<pre>
<---- END FORUMS PASTE ---->

QUICK SUMMARY:

Disc Title: MIYAZAKI_BONUS_1Disc Size: 24 605 153 795 bytesProtection: AACSBD-Java: NoPlaylist: 00001.MPLSSize: 1 533 696 000 bytesLength: 0:04:54.961Total Bitrate: 41.60 MbpsVideo: MPEG-4 AVC Video / 37325 kbps / 1080p / 23.976 fps / 16:9 / High Profile 4.1Audio: Japanese / LPCM Audio / 2.0 / 48 kHz / 2304 kbps / 24-bitSubtitle: English / 36.672 kbpsSubtitle: Russian / 72.329 kbps

********************PLAYLIST: 00002.MPLS********************

<--- BEGIN FORUMS PASTE --->
</pre>
Total Video
Title Codec Length Movie Size Disc Size Bitrate Bitrate Main Audio Track Secondary Audio Track
----- ------ ------- -------------- -------------- ------- ------- ------------------ ---------------------
00002.MPLS AVC 0:24:35 7655976960 24605153795 41.51 37.30 LPCM 2.0 2304Kbps (48kHz/24-bit)
DISC INFO:

Disc Title: MIYAZAKI_BONUS_1
Disc Size: 24605153795 bytes
Protection: AACS
BD-Java: No
BDInfo: 0.5.8

PLAYLIST REPORT:

Name: 00002.MPLS
Length: 0:24:35.348 (h:m:s.ms)
Size: 7655976960 bytes
Total Bitrate: 41.51 Mbps

VIDEO:

Codec Bitrate Description
----- ------- -----------
MPEG-4 AVC Video 37297 kbps 1080p / 23.976 fps / 16:9 / High Profile 4.1

AUDIO:

Codec Language Bitrate Description
----- -------- ------- -----------
LPCM Audio Japanese 2304 kbps 2.0 / 48 kHz / 2304 kbps / 24-bit

SUBTITLES:

Codec Language Bitrate Description
----- -------- ------- -----------
Presentation Graphics English 35.425 kbps
Presentation Graphics Russian 22.208 kbps

FILES:

Name Time In Length Size Total Bitrate
---- ------- ------ ---- -------------
00005.M2TS 0:00:00.000 0:24:35.348 7655976960 41514

CHAPTERS:

Number Time In Length Avg Video Rate Max 1-Sec Rate Max 1-Sec Time Max 5-Sec Rate Max 5-Sec Time Max 10Sec Rate Max 10Sec Time Avg Frame Size Max Frame Size Max Frame Time
------ ------- ------ -------------- -------------- -------------- -------------- -------------- -------------- -------------- -------------- -------------- --------------
1 0:00:00.000 0:01:26.920 37539 kbps 54025 kbps 00:01:21.956 44658 kbps 00:00:02.377 41957 kbps 00:00:02.377 195616 bytes 472062 bytes 00:01:22.791
2 0:01:26.920 0:04:49.455 36674 kbps 61914 kbps 00:03:22.076 44552 kbps 00:01:53.863 41620 kbps 00:01:52.654 191202 bytes 542713 bytes 00:05:28.369
3 0:06:16.376 0:05:26.200 37018 kbps 58998 kbps 00:06:30.973 43930 kbps 00:09:58.347 41467 kbps 00:06:22.340 192996 bytes 559747 bytes 00:07:30.616
4 0:11:42.576 0:05:27.076 37901 kbps 58765 kbps 00:12:30.750 43916 kbps 00:16:18.769 41505 kbps 00:14:51.265 197596 bytes 536223 bytes 00:11:47.248
5 0:17:09.653 0:05:43.593 37284 kbps 58741 kbps 00:18:12.007 44033 kbps 00:20:30.187 41407 kbps 00:21:35.294 194380 bytes 580994 bytes 00:20:34.358
6 0:22:53.246 0:00:30.029 39012 kbps 49280 kbps 00:23:21.400 40645 kbps 00:23:06.510 40241 kbps 00:23:02.798 203389 bytes 455341 bytes 00:23:22.401
7 0:23:23.276 0:01:11.070 37910 kbps 46956 kbps 00:24:08.780 42942 kbps 00:23:49.803 41772 kbps 00:23:47.759 197645 bytes 475540 bytes 00:23:47.801
8 0:24:34.347 0:00:01.001 78 kbps 0 kbps 00:00:00.000 0 kbps 00:00:00.000 0 kbps 00:00:00.000 426 bytes 535 bytes 00:24:35.307

STREAM DIAGNOSTICS:

File PID Type Codec Language Seconds Bitrate Bytes Packets
---- --- ---- ----- -------- -------------- -------------- ------------- -----
00005.M2TS 4113 (0x1011) 0x1B AVC 1475.224 37300 6878308647 37402688
00005.M2TS 4352 (0x1100) 0x80 LPCM jpn (Japanese) 1475.224 2311 426082524 2360568
00005.M2TS 4608 (0x1200) 0x90 PGS eng (English) 1475.224 35 6533060 38269
00005.M2TS 4609 (0x1201) 0x90 PGS rus (Russian) 1475.224 22 4095531 23926
<pre>
<---- END FORUMS PASTE ---->

QUICK SUMMARY:

Disc Title: MIYAZAKI_BONUS_1Disc Size: 24 605 153 795 bytesProtection: AACSBD-Java: NoPlaylist: 00002.MPLSSize: 7 655 976 960 bytesLength: 0:24:35.348Total Bitrate: 41.51 MbpsVideo: MPEG-4 AVC Video / 37297 kbps / 1080p / 23.976 fps / 16:9 / High Profile 4.1Audio: Japanese / LPCM Audio / 2.0 / 48 kHz / 2304 kbps / 24-bitSubtitle: English / 35.425 kbpsSubtitle: Russian / 22.208 kbps

********************PLAYLIST: 00003.MPLS********************

<--- BEGIN FORUMS PASTE --->
</pre>
Total Video
Title Codec Length Movie Size Disc Size Bitrate Bitrate Main Audio Track Secondary Audio Track
----- ------ ------- -------------- -------------- ------- ------- ------------------ ---------------------
00003.MPLS AVC 0:24:35 7683465216 24605153795 41.66 37.42 LPCM 2.0 2304Kbps (48kHz/24-bit)
DISC INFO:

Disc Title: MIYAZAKI_BONUS_1
Disc Size: 24605153795 bytes
Protection: AACS
BD-Java: No
BDInfo: 0.5.8

PLAYLIST REPORT:

Name: 00003.MPLS
Length: 0:24:35.348 (h:m:s.ms)
Size: 7683465216 bytes
Total Bitrate: 41.66 Mbps

VIDEO:

Codec Bitrate Description
----- ------- -----------
MPEG-4 AVC Video 37424 kbps 1080p / 23.976 fps / 16:9 / High Profile 4.1

AUDIO:

Codec Language Bitrate Description
----- -------- ------- -----------
LPCM Audio Japanese 2304 kbps 2.0 / 48 kHz / 2304 kbps / 24-bit

SUBTITLES:

Codec Language Bitrate Description
----- -------- ------- -----------
Presentation Graphics English 42.624 kbps
Presentation Graphics Russian 30.882 kbps

FILES:

Name Time In Length Size Total Bitrate
---- ------- ------ ---- -------------
00006.M2TS 0:00:00.000 0:24:35.348 7683465216 41663

CHAPTERS:

Number Time In Length Avg Video Rate Max 1-Sec Rate Max 1-Sec Time Max 5-Sec Rate Max 5-Sec Time Max 10Sec Rate Max 10Sec Time Avg Frame Size Max Frame Size Max Frame Time
------ ------- ------ -------------- -------------- -------------- -------------- -------------- -------------- -------------- -------------- -------------- --------------
1 0:00:00.000 0:01:26.920 37227 kbps 54014 kbps 00:01:21.956 44661 kbps 00:00:02.377 41806 kbps 00:00:02.377 193990 bytes 472063 bytes 00:01:22.791
2 0:01:26.920 0:05:39.130 38390 kbps 54467 kbps 00:05:47.263 44709 kbps 00:01:31.007 41695 kbps 00:05:38.337 200146 bytes 513277 bytes 00:03:41.387
3 0:07:06.050 0:04:36.484 38390 kbps 50888 kbps 00:11:25.226 43492 kbps 00:11:23.599 41986 kbps 00:07:34.787 200148 bytes 533855 bytes 00:07:18.020
4 0:11:42.535 0:06:04.864 36564 kbps 52601 kbps 00:16:59.893 44166 kbps 00:16:59.852 41644 kbps 00:15:11.493 190627 bytes 515835 bytes 00:12:03.973
5 0:17:47.399 0:05:05.847 36745 kbps 52960 kbps 00:18:26.647 44323 kbps 00:21:03.220 41394 kbps 00:20:59.091 191571 bytes 505308 bytes 00:21:24.658
6 0:22:53.246 0:00:30.029 38617 kbps 52899 kbps 00:23:14.851 43534 kbps 00:23:02.130 41768 kbps 00:22:58.710 201331 bytes 474278 bytes 00:23:23.276
7 0:23:23.276 0:01:11.070 36653 kbps 45688 kbps 00:23:47.759 43410 kbps 00:23:47.759 41734 kbps 00:23:47.759 191093 bytes 549206 bytes 00:23:47.801
8 0:24:34.347 0:00:01.001 78 kbps 0 kbps 00:00:00.000 0 kbps 00:00:00.000 0 kbps 00:00:00.000 426 bytes 535 bytes 00:24:35.307

STREAM DIAGNOSTICS:

File PID Type Codec Language Seconds Bitrate Bytes Packets
---- --- ---- ----- -------- -------------- -------------- ------------- -----
00006.M2TS 4113 (0x1011) 0x1B AVC 1475.224 37427 6901616978 37529350
00006.M2TS 4352 (0x1100) 0x80 LPCM jpn (Japanese) 1475.224 2311 426082524 2360568
00006.M2TS 4608 (0x1200) 0x90 PGS eng (English) 1475.224 43 7860730 45627
00006.M2TS 4609 (0x1201) 0x90 PGS rus (Russian) 1475.224 31 5695287 33067
<pre>
<---- END FORUMS PASTE ---->

QUICK SUMMARY:

Disc Title: MIYAZAKI_BONUS_1Disc Size: 24 605 153 795 bytesProtection: AACSBD-Java: NoPlaylist: 00003.MPLSSize: 7 683 465 216 bytesLength: 0:24:35.348Total Bitrate: 41.66 MbpsVideo: MPEG-4 AVC Video / 37424 kbps / 1080p / 23.976 fps / 16:9 / High Profile 4.1Audio: Japanese / LPCM Audio / 2.0 / 48 kHz / 2304 kbps / 24-bitSubtitle: English / 42.624 kbpsSubtitle: Russian / 30.882 kbps

********************PLAYLIST: 00004.MPLS********************

<--- BEGIN FORUMS PASTE --->
</pre>
Total Video
Title Codec Length Movie Size Disc Size Bitrate Bitrate Main Audio Track Secondary Audio Track
----- ------ ------- -------------- -------------- ------- ------- ------------------ ---------------------
00004.MPLS AVC 0:24:35 7684509696 24605153795 41.66 37.42 LPCM 2.0 2304Kbps (48kHz/24-bit)
DISC INFO:

Disc Title: MIYAZAKI_BONUS_1
Disc Size: 24605153795 bytes
Protection: AACS
BD-Java: No
BDInfo: 0.5.8

PLAYLIST REPORT:

Name: 00004.MPLS
Length: 0:24:35.724 (h:m:s.ms)
Size: 7684509696 bytes
Total Bitrate: 41.66 Mbps

VIDEO:

Codec Bitrate Description
----- ------- -----------
MPEG-4 AVC Video 37420 kbps 1080p / 23.976 fps / 16:9 / High Profile 4.1

AUDIO:

Codec Language Bitrate Description
----- -------- ------- -----------
LPCM Audio Japanese 2304 kbps 2.0 / 48 kHz / 2304 kbps / 24-bit

SUBTITLES:

Codec Language Bitrate Description
----- -------- ------- -----------
Presentation Graphics English 41.832 kbps
Presentation Graphics Russian 30.251 kbps

FILES:

Name Time In Length Size Total Bitrate
---- ------- ------ ---- -------------
00007.M2TS 0:00:00.000 0:24:35.724 7684509696 41658

CHAPTERS:

Number Time In Length Avg Video Rate Max 1-Sec Rate Max 1-Sec Time Max 5-Sec Rate Max 5-Sec Time Max 10Sec Rate Max 10Sec Time Avg Frame Size Max Frame Size Max Frame Time
------ ------- ------ -------------- -------------- -------------- -------------- -------------- -------------- -------------- -------------- -------------- --------------
1 0:00:00.000 0:01:26.920 36952 kbps 54014 kbps 00:01:21.956 44665 kbps 00:00:02.377 41675 kbps 00:00:02.377 192556 bytes 472058 bytes 00:01:22.791
2 0:01:26.920 0:04:38.778 38022 kbps 51498 kbps 00:01:31.966 43640 kbps 00:01:30.507 41692 kbps 00:05:22.280 198227 bytes 514946 bytes 00:04:31.604
3 0:06:05.698 0:05:36.878 36467 kbps 55103 kbps 00:11:15.299 44202 kbps 00:06:45.905 41314 kbps 00:06:45.905 190121 bytes 530138 bytes 00:07:20.273
4 0:11:42.576 0:05:29.579 37629 kbps 64179 kbps 00:13:25.888 43538 kbps 00:14:03.592 41800 kbps 00:13:58.879 196181 bytes 538756 bytes 00:13:26.180
5 0:17:12.156 0:05:41.466 37799 kbps 52596 kbps 00:20:09.750 45135 kbps 00:20:32.648 41944 kbps 00:19:54.902 197067 bytes 501417 bytes 00:20:18.133
6 0:22:53.622 0:00:30.029 38540 kbps 52374 kbps 00:23:06.009 44172 kbps 00:23:06.009 41549 kbps 00:23:02.631 200931 bytes 533002 bytes 00:23:20.690
7 0:23:23.652 0:01:11.070 37418 kbps 45417 kbps 00:24:30.135 43054 kbps 00:23:48.135 41246 kbps 00:24:23.128 195081 bytes 532681 bytes 00:23:48.176
8 0:24:34.723 0:00:01.001 79 kbps 0 kbps 00:00:00.000 0 kbps 00:00:00.000 0 kbps 00:00:00.000 427 bytes 536 bytes 00:24:35.682

STREAM DIAGNOSTICS:

File PID Type Codec Language Seconds Bitrate Bytes Packets
---- --- ---- ----- -------- -------------- -------------- ------------- -----
00007.M2TS 4113 (0x1011) 0x1B AVC 1475.599 37423 6902747520 37535459
00007.M2TS 4352 (0x1100) 0x80 LPCM jpn (Japanese) 1475.599 2311 426190824 2361168
00007.M2TS 4608 (0x1200) 0x90 PGS eng (English) 1475.599 42 7716532 44889
00007.M2TS 4609 (0x1201) 0x90 PGS rus (Russian) 1475.599 30 5580272 32532
<pre>
<---- END FORUMS PASTE ---->

QUICK SUMMARY:

Disc Title: MIYAZAKI_BONUS_1Disc Size: 24 605 153 795 bytesProtection: AACSBD-Java: NoPlaylist: 00004.MPLSSize: 7 684 509 696 bytesLength: 0:24:35.724Total Bitrate: 41.66 MbpsVideo: MPEG-4 AVC Video / 37420 kbps / 1080p / 23.976 fps / 16:9 / High Profile 4.1Audio: Japanese / LPCM Audio / 2.0 / 48 kHz / 2304 kbps / 24-bitSubtitle: English / 41.832 kbpsSubtitle: Russian / 30.251 kbps
</pre>
"Ѩ Ȼ"

14.07.2010 (1984)
22.12.2010 (1986)
22.12.2010 (1999)
17.06.2011 (2010)
20.07.2011 ظ (1995)
16.11.2011 (2004)
16.11.2011 (2006)
16.11.2011 (2008)
20.06.2012 (2011)
18.07.2012 (1988)
18.07.2012 (1988)
04.12.2012 (1989)
04.12.2012 (1991)
17.07.2013 (1992)
06.11.2013 (1994)
04.12.2013 (1997)
04.12.2013 + (2002)
18.06.2014 (2013)
16.07.2014 (2001)
06.08.2014 III: (1979)
03.12.2014 (2013)
18.03.2015 (2014)
17.07.2015 (1993)



04.07.2007 (2007)
19.12.2007 : "" (2007)
03.07.2009 "": 25 (2008)
17.11.2010 : (2010)
21.05.2014 (2014)
02.07.2014 + (1972)
02.07.2014 - (2013)
27.10.2014 On Your Mark (1995)
21.01.2015 (1987)
17.07.2015 + (1972, 1973)
17.07.2015 (1982)



25.07.2008 (1981)
25.07.2008 (1984)


 ·  , , FAQ-
:  [ 08--2017 05:00 ]

  

.torrent

.torrent 118 KB


: 22.92 GB
(hash) : 995c3a82fc5f81367c68b0fed61dfcb35dc915fe
:
··
...

+ Yuki no Taiyou + Akadou Suzunosuke . !

!