Скачать через торрент Кизнайвер Ранаивер бесплатно Аниме Все серии на русском torrent

Если у вас наблюдаются проблемы со скриншотами, переходом по ссылками, скачиванием торрентов - проблемы в блокировщике рекламы AdBlock. #хорошегоДня!


Статистика раздачи
Размер:  7.71 GB   |    Зарегистрирован:  8 месяцев   |    .torrent скачан:  21 раз   |   
Раздают:  1  
   
Загрузка...
 
Автор Сообщение

Galfimbul

avatar Galfimbul



Год выпуска: 2016
Страна: Япония
Жанр: фантастика, романтика, драма
Продолжительность: ТВ, 12 эп. по 24 мин.
Выпуск: c 09.04.2016 по 25.06.2016
Перевод:

русские субтитры от Timecraft & Ambiente & RJ-45 (полные/вспомогательные)
редактор: AleX_MytH; переводчик, оформление: Матадор; cверка с японским: RJ-45
Режиссер: Кобаяси Хироси
Студия: Trigger
Описание:
17-летний Кацухира Агата – парень щуплый и почти лишенный эмоций, постоянное беспокойство шебутной подруги детства Тидори Такасиро он воспринимает как явление природы. Но даже такого флегматика до костей пробрало заявление странной одноклассницы Норико, что отныне он – часть эксперимента и неразрывно связан с ровесниками-школьниками: той же Тидори, плейбоем Цугухито, хулиганом Хадзимэ, заучкой Хонокой и малышкой Нико, которая на людях держит маску безобидной дурочки. Пусть искусственно, но теперь они стали ближе близнецов, и любая физическая боль, причиненная одному, тут же делится на всю компанию.

Кому и зачем это нужно? Неким тайным силам, которые решили, что Творец, создавая нас по образу и подобию Своему, явно недоработал. Люди все время причиняют друг другу боль – так может, добиться вечного мира и счастья удастся, если каждый будет чувствовать боль другого, как свою собственную? Для начала, конечно, надо потренироваться на кош… то есть, японских школьниках, на ком еще-то? Теперь участники, «связанные одной цепью», будут под руководством Норико отрабатывать дружбу и командную работу, для чего, оказывается, и создан целый город Сугомори. А вы бы хотели к ним присоединиться?
© Hollow, World Art
Информационные ссылки: AniDB || World Art || MAL
Качество: BDRip
Энкод: Winter - RG Pantheon
Тип видео: без хардсаба, без линковки
Формат: mkv
Видео: x264 (Hi10p), 1280x720, ~3500 Kbps, 23.976 fps
Аудио JAP: Vorbis, 48000Hz, ~256 Kbps, 2ch
Аудио RUS: AC3, 48000Hz, ~192 Kbps, 2ch (внешними файлами)
двухголосая (жен./муж.) от Snowly & Лизавета (SHIZA)
01. Sometimes, a Bond Can Bloom from the First Day Eye Contact Is Made
02. If You Can Swallow a Bizarre Situation Like This So Easily, Two Buckets of Barium Shouldn`t Be a Problem
03. Depending on How You Look At It, I Think We Could Get Through Anything... Right?
04. Now That We`re All Connected, Let`s All Get to Know Each Other Better, `Kay?
05. Wahoo, It`s a Training Camp! Let`s Step in Deer Poop and Have Pillow Fights! Go, Go!
06. Nothing Good Comes From Being Around All of You
07. A Battle Touching Upon the Identity of the Pain That`s Seven Times the Pain of One-Seventh of a Pain
08. Happy Times Don`t Tend to Last Very Long
09. It`s All Over... I Think
10. You Knew Very Well That Your Romantic Feelings Might Be Unrequited, Right?
11. We Have to Contact Each Other and Confirm Our Feelings. Because We`re Friends!
12. If the Kizna System Spread Throughout the World
...5208662
...5206156
- BDRip
...5277764
...5265476
- 720p
Общее
Уникальный идентификатор : 211583685315085931619329854655364321721 (0x9F2D89187147D3C89F237BA9442BD1B9)
Полное имя : A:\Anime\720p\Kiznaiver [BD] [720p]\[W] Kiznaiver 02 [BDrip 1280x720 x264 Vorbis].mkv
Формат : Matroska
Версия формата : Version 2
Размер файла : 666 Мбайт
Продолжительность : 24 м.
Режим общего битрейта : Переменный
Общий поток : 3871 Кбит/сек
Дата кодирования : UTC 2017-03-13 07:28:03
Программа кодирования : mkvmerge v2.9.8 ('C'est le bon') built on Aug 13 2009 12:49:06
Библиотека кодирования : libebml v0.7.7 + libmatroska v0.8.1

Видео
Идентификатор : 1
Формат : AVC
Формат/Информация : Advanced Video Codec
Профиль формата : High 10@L4.1
Параметр CABAC формата : Да
Параметр ReFrames формата : 9 кадров
Идентификатор кодека : V_MPEG4/ISO/AVC
Продолжительность : 24 м.
Битрейт : 3538 Кбит/сек
Ширина : 1280 пикселей
Высота : 720 пикселей
Соотношение сторон : 16:9
Режим частоты кадров : Постоянный
Частота кадров : 23,976 кадра/сек
Цветовое пространство : YUV
Субдискретизация насыщенности : 4:2:0
Битовая глубина : 10 бит
Тип развёртки : Прогрессивная
Бит/(Пиксели*Кадры) : 0.160
Размер потока : 609 Мбайт (91%)
Библиотека кодирования : x264 core 148 r2694 3b70645
Настройки программы : cabac=1 / ref=9 / deblock=1:-2:-2 / analyse=0x3:0x133 / me=umh / subme=9 / psy=1 / psy_rd=0.90:0.00 / mixed_ref=1 / me_range=24 / chroma_me=1 / trellis=2 / 8x8dct=1 / cqm=0 / deadzone=21,11 / fast_pskip=1 / chroma_qp_offset=-2 / threads=12 / lookahead_threads=2 / sliced_threads=0 / nr=0 / decimate=0 / interlaced=0 / bluray_compat=0 / constrained_intra=0 / bframes=8 / b_pyramid=2 / b_adapt=2 / b_bias=0 / direct=1 / weightb=1 / open_gop=0 / weightp=2 / keyint=250 / keyint_min=23 / scenecut=40 / intra_refresh=0 / rc=crf / mbtree=0 / crf=15.7 / qcomp=0.70 / qpmin=9 / qpmax=40 / qpstep=4 / ip_ratio=1.40 / pb_ratio=1.30 / aq=1:0.90
Default : Нет
Forced : Нет

Аудио
Идентификатор : 2
Формат : Vorbis
Параметр Floor формата : 1
Идентификатор кодека : A_VORBIS
Продолжительность : 24 м.
Вид битрейта : Переменный
Битрейт : 256 Кбит/сек
Каналы : 2 канала
Частота : 48,0 КГц
Метод сжатия : С потерями
Размер потока : 44,0 Мбайт (7%)
Библиотека кодирования : libVorbis (??] (20150105 (??])
Язык : Japanese
Default : Да
Forced : Нет


Выбор видео, перевода, озвучки, а также типа сборки материала осуществляется релизером и не подлежит обсуждению. Если вы считаете, что раздаваемый материал противоречит правилам раздела "Аниме" rutracker.org, сообщите об этом одному из модераторов раздела.

В случае появления нового материала или же лучшего по качеству материала релизер оставляет за собой право обновить раздачу. В этом случае вам необходимо ознакомиться с изменениями (добавлениями) и перекачать торрент.

Данный релиз предназначен для просмотра на ПК. Воспроизведение на иных проигрывателях не гарантируется. Для просмотра рекомендуется Media Player Classic с установленным пакетом кодеков K-Lite.

Данный релиз содержит 10-битное видео (Hi10p). Для корректного воспроизведения обязательно используйте кодеки, поддерживающие 10-битное видео.
Обсудить частные случаи проблем с воспроизведением и получить дополнительную информацию можно здесь.

Данный релиз предназначен для просмотра с внешними субтитрами и внешними звуковыми дорожками.

Для просмотра с внешней звуковой дорожкой нужно:
перекинуть файлы .mka из папки "RUS Sound [<автор(ы) озвучки>]" в одну папку с видео и переключить звуковую дорожку в плеере при просмотре. Как это сделать в разных плеерах подробно описано здесь.
Для просмотра с субтитрами нужно:
перекинуть файлы .ass из папки "RUS Subtitles [<автор(ы) перевода>]" в одну папку с видео - плеер подгрузит их автоматически при открытии видео.

Если у вас возникли проблемы с просмотром, не связанные с описанным выше, сообщите о них автору раздачи посредством сообщения в теме или ЛС Aglenn.


Трекер:  [ 19-Мар-2017 16:00 ]

  

Скачать .torrent

Размер .torrent файла 43 KB


Размер: 7.71 GB
Хэш (hash) релиза: 72bd200673267c18eb23ecc475e067c8bfbea910
Подписка на обновления:

Еще никто не оставлял запись к записи скачать торрент Кизнайвер Ранаивер . Будь первым!

!Обратная связь