Скачать через торрент Чёрные метки Schwarzesmarken бесплатно Аниме Все серии на русском torrent

Если у вас наблюдаются проблемы со скриншотами, переходом по ссылками, скачиванием торрентов - проблемы в блокировщике рекламы AdBlock. #хорошегоДня!


Статистика раздачи
Размер:  14.8 GB   |    Зарегистрирован:  8 месяцев   |    .torrent скачан:  31 раз   |   
Раздают:  1  
   
Загрузка...
 
Автор Сообщение

Galfimbul

avatar Galfimbul


Чёрные метки / Schwarzesmarken
シュヴァルツェスマーケン
Страна: Япония
Год выпуска: c 11.01.2016 по 28.03.2016
Тип: TV
Жанр: Приключения, фантастика, меха
Продолжительность: 12 эп. по 25 мин
Режиссер: Ватанабэ Тэцуя
Автор оригинала: Ватанабэ Тэцуя

Студия:

Адаптация еще одного спин-офф известной франшизы Muv-Luv Alternative. Данное действие разворачивается в 1983 году, за 18 лет до событий Muv-Luv Alternative: Total Eclipse.

Прошло 10 лет с начала полномасштабной агрессии внеземной формы жизни, БЕТА. Захватив практически всю территорию Центральной Азии, Китая и Советского Союза, БЕТА атакуют восточные рубежи Германской демократической республики. На оборонительной линии Одер-Нейсе разворачивается отчаянное и безнадежное сражение. Тем временем, наш гг спасает некую девушку... С этого момента и закручивается сюжет.

По сравнению с предыдущим спин-офом, бета тут не испарились неизвестно куда, что уже радует. Политические междоусобицы все также присутствуют. Так и должно быть, ведь это фишка данного произведения. Гаремника я тут не увидел. В гг заинтересованы были только две особы (конкретно в нем - одна).

Начинается все с экшена. Наших героев кидают в самое пекло, ведь они лучший отряд Восточной Германии. И должны защищать город, людей, не только от бета, но и от штази (местные захватчики власти, против которых открыто они выступать не могут). Наблюдать за всем этим противостоянием было интересно. © Bakuryu

World-Art
Качество: BDRip ReinForce

Тип релиза: Без хардсаба

Формат видео: mkv
<div style="margin-left: 2em" class="post-ul">Видео: x264 (8 bits), 1920x1080, 23.976 fps, 6604 Kbps
Аудио: японский, FLAC 2 канала, 48 КГц, 1472 Кбит/сек
2. Аудио: 192 Кбит/сек, 48,0 КГц, 16 бит, 2 канала, AAC Язык Русский (внешним файлом) Двухголосая (муж+жен) Absurd & Eladiel (Onibaku)
Субтитры:
<div style="margin-left: 2em" class="post-ul">(Russian): ASS, внешние
Переводчик/Перевод песен: Eru
Тайм-код: tengri
Оформление: tengri
01. Эпизод 1
02. Эпизод 2
03. Эпизод 3
04. Эпизод 4
05. Эпизод 5
06. Эпизод 6
07. Эпизод 7
08. Эпизод 8
09. Эпизод 9
10. Эпизод 10
11. Эпизод 11
12. Эпизод 12
Общее
Уникальный идентификатор : 209384293045049472641018163472183006662 (0x9D85F2AF3592ACD27C97E0995CBF15C6)
Полное имя : C:\[ReinForce] Schwarzesmarken (BDRip 1920x1080 x264 FLAC)\[ReinForce] Schwarzesmarken - 01 (BDRip 1920x1080 x264 FLAC).mkv
Формат : Matroska
Версия формата : Version 4 / Version 2
Размер файла : 1,35 Гбайт
Продолжительность : 23 м. 57 с.
Режим общего битрейта : Переменный
Общий поток : 8079 Кбит/сек
Дата кодирования : UTC 2016-03-29 20:31:43
Программа кодирования : mkvmerge v8.9.0 ('Father Daughter') 64bit
Библиотека кодирования : libebml v1.3.3 + libmatroska v1.4.4

Видео
Идентификатор : 1
Формат : AVC
Формат/Информация : Advanced Video Codec
Профиль формата : High@L4
Параметр CABAC формата : Да
Параметр ReFrames формата : 4 кадра
Идентификатор кодека : V_MPEG4/ISO/AVC
Продолжительность : 23 м. 57 с.
Битрейт : 6604 Кбит/сек
Ширина : 1920 пикселей
Высота : 1080 пикселей
Соотношение сторон : 16:9
Режим частоты кадров : Постоянный
Частота кадров : 23,976 (24000/1001) кадра/сек
Цветовое пространство : YUV
Субдискретизация насыщенности : 4:2:0
Битовая глубина : 8 бит
Тип развёртки : Прогрессивная
Бит/(Пиксели*Кадры) : 0.133
Размер потока : 1,10 Гбайт (82%)
Библиотека кодирования : x264 core 148
Настройки программы : opencl=1 / cabac=1 / ref=4 / deblock=1:-2:-2 / analyse=0x3:0x113 / me=umh / subme=9 / psy=1 / psy_rd=0.70:0.00 / mixed_ref=0 / me_range=32 / chroma_me=1 / trellis=2 / 8x8dct=1 / cqm=0 / deadzone=21,11 / fast_pskip=1 / chroma_qp_offset=-2 / threads=8 / lookahead_threads=1 / sliced_threads=0 / nr=0 / decimate=1 / interlaced=0 / bluray_compat=0 / constrained_intra=0 / bframes=9 / b_pyramid=2 / b_adapt=2 / b_bias=0 / direct=3 / weightb=1 / open_gop=0 / weightp=2 / keyint=250 / keyint_min=23 / scenecut=40 / intra_refresh=0 / rc_lookahead=40 / rc=crf / mbtree=1 / crf=16.0 / qcomp=0.70 / qpmin=10 / qpmax=20 / qpstep=4 / ip_ratio=1.40 / aq=1:1.00
Default : Да
Forced : Нет

Аудио
Идентификатор : 2
Формат : FLAC
Формат/Информация : Free Lossless Audio Codec
Идентификатор кодека : A_FLAC
Продолжительность : 23 м. 57 с.
Вид битрейта : Переменный
Битрейт : 1472 Кбит/сек
Каналы : 2 канала
Расположение каналов : Front: L R
Частота : 48,0 КГц
Частота кадров : 10,417 кадров/сек (4608 spf)
Битовая глубина : 24 бит
Размер потока : 252 Мбайт (18%)
Библиотека кодирования : Lavf56.40.101
Язык : Japanese
Default : Да
Forced : Нет
Отличия:

...5180604 - Hit0kiri BDRip
...5150073 - warfare2008 BDRip
...4833170 - Aglenn BDRip 1080
...5252576 - antiBILLotic BDRip 1080
</div>
</div>

Трекер:  [ 22-Мар-2017 12:00 ]

  

Скачать .torrent

Размер .torrent файла 41 KB


Размер: 14.8 GB
Хэш (hash) релиза: 9b60916833940b026c5e40fe1d95beeb27862d38
Подписка на обновления:

Торренты, похожие на Чёрные метки Schwarzesmarken скачать торрент

Форум Название Автор Размер S L Добавлен
Аниме | HD Rips ·· Чёрные метки / Schwarzesmarken (Хирао Такаюки) [TV] [10 из 12] [без хардсаба] [RUS(ext), JAP+SUB] [2016 г., фантастика, меха, BDRip] [720p] Galfimbul 63493762635.91 GB 0 0 1474830423

22:07

25-Сен-16

Аниме | HD Rips ·· Чёрные метки / Schwarzesmarken (Ватанабэ Тэцуя) [TV] [без хардсаба] [01-10 из 12] [RUS(ext), JAP+SUB] [2016 г., приключения, фантастика, меха, BDRemux] [1080p] Galfimbul 6999518702565.19 GB 0 0 1470513836

23:03

6-Авг-16

Аниме | Rips ·· Чёрные метки / Schwarzesmarken [TV] [12 из 12] [Без хардсаба] [RUS(int), JAP+SUB] [2016 г., приключения, фантастика, меха, драма, HDTVRip] [HWP] Galfimbul 30980579302.89 GB 0 0 1468085751

20:35

9-Июл-16

Аниме | HD Rips ·· Чёрные метки / Schwarzesmarken (Ватанабэ Тэцуя) [TV] [без хардсаба] [01-08 из 12] [RUS(ext), JAP+SUB] [2016 г., приключения, фантастика, меха, BDRemux] [1080p] Galfimbul 5597868188052.13 GB 0 0 1467982611

15:56

8-Июл-16

Аниме | HD Rips ·· Чёрные метки / Schwarzesmarken [TV] [12 из 12] [Без хардсаба] [JAP+SUB] [2016 г., фантастика, меха, драма, WEBRip] [1080p] Galfimbul 68828768416.41 GB 0 0 1461080266

18:37

19-Апр-16

Аниме | Rips ·· Чёрные метки / Schwarzesmarken [TV] [01-04 из >12] [Без хардсаба] [RUS(int), JAP+SUB] [2016 г., приключения, фантастика, меха, драма, HDTVRip] [HWP] Galfimbul 11068149381.03 GB 0 0 1455457799

16:49

14-Фев-16

Аниме | Rips ·· Черные метки / Schwarzesmarken [TV] [01-03 из 12] [Без хардсаба] [RUS(int), JAP] [2016 г., Экшен, Драма, Фантастика, Военное, Меха., HDTVRip] [720p] Galfimbul 14960150811.39 GB 0 0 1454083542

19:05

29-Янв-16

Аниме | HD Rips ·· Чёрные метки / Schwarzesmarken / Schwarzes Marken (Ватанабэ Тэцуя) [TV] [Без хардсаба] [01-03 из 12] [JAP+SUB] & [01-02 из 12] [RUS(ext)] [2016 г., приключения, фантастика, меха, драма, HDTVRip] [720p] Galfimbul 14620223691.36 GB 0 0 1453799622

12:13

26-Янв-16

Аниме | Rips ·· Черные метки / Schwarzesmarken [TV] [01-02 из 12] [Без хардсаба] [RUS(int), JAP] [2016 г., Экшен, Драма, Фантастика, Военное, Меха., HDTVRip] Galfimbul 10609848401012 MB 0 0 1453489420

22:03

22-Янв-16

Аниме | HD Rips ·· Чёрные метки / Schwarzesmarken [TV] [1 из ?] [Без хардсаба] [JAP+SUB] [2016 г., фантастика, меха, драма, WEBRip] [1080p] Galfimbul 574926951548 MB 0 0 1452640454

02:14

13-Янв-16

Аниме | Rips ·· Черные метки / Schwarzesmarken / Schwarzes Marken [TV] [01 из 12] [Без хардсаба] [RUS(ext), JAP, SUB] [2016 г., Драма, Боевик, Фантастика, Военное, Меха, HDTVRip] [720p] Galfimbul 502869676480 MB 0 0 1452636544

01:09

13-Янв-16

Аниме | HD Rips ·· Чёрные метки / Schwarzesmarken (Ватанабэ Тэцуя) [TV] [Без хардсаба] [1 из 12] [JAP+SUB] & [1 из 12] [RUS(ext)] [2016 г., фантастика, приключения, меха, экшн, драма HDTVRip] [720p] Galfimbul 554838030529 MB 0 0 1452556716

02:58

12-Янв-16

Аниме | HD Rips ·· Чёрные метки / Schwarzesmarken (Ватанабэ Тэцуя) [TV] [1 из 12] [Без хардсаба] [JAP+SUB] [2016 г., фантастика, приключения, меха, экшн, драма HDTVRip] [720p] Galfimbul 519678224496 MB 0 0 1452511465

14:24

11-Янв-16

Аниме | HD Rips ·· Чёрные метки / Schwarzes Marken / Schwarzesmarken (Ватанабэ Тэцуя) [TV] [01 из 12] [Без хардсаба] [RUS(ext), JAP+SUB] [2016 г., приключения, фантастика, меха, драма, HDTVRip] [720p] Galfimbul 589994721563 MB 0 0 1452681092

13:31

13-Янв-16

Еще никто не оставлял запись к записи скачать торрент Чёрные метки Schwarzesmarken . Будь первым!

!Обратная связь