Скачать через торрент музыку Ханна Монтана Hannah Montana бесплатно без регистрации torrent

Если у вас наблюдаются проблемы со скриншотами, переходом по ссылками, скачиванием торрентов - проблемы в блокировщике рекламы AdBlock. #хорошегоДня!


Статистика раздачи
Размер:  341 MB   |    Зарегистрирован:  8 месяцев   |    .torrent скачан:  15 раз   |   
Раздают:  1  
   
Загрузка...
 
Автор Сообщение

Galfimbul

avatar Galfimbul


Ханна Монтана
Hannah Montana
Название альбома: Hannah Montana (Russian Edition)
Жанр: Soundtrack
Носитель: CD
Год издания: 2008
Страна-производитель диска:
Номер по каталогу: 5099924251228
Аудиокодек: FLAC (*.flac)
Тип рипа: image+.cue
Битрейт аудио: lossless
Продолжительность: 00:45:24
Источник: собственный CD
Наличие сканов в содержимом раздачи: только обложка
Треклист:
01. Мария Иващенко - Две жизни (2:54)
02. Hannah Montana - The Best of Both Worlds (2:54)
03. Hannah Montana - Who Said (3:15)
04. Hannah Montana - Just Like You (3:14)
05. Hannah Montana - Pumpin' Up the Party (3:10)
06. Hannah Montana - If We Were a Movie (3:04)
07. Hannah Montana - I Got Nerve (3:06)
08. Hannah Montana - The Other Side of Me (3:07)
09. Hannah Montana - This Is the Life (2:59)
10. The Click Five - Pop Princess (4:24)
11. Jesse McCartney - She's No You (3:33)
12. Everlife - Find Yourself In You (3:35)
13. B5 - Shining Star (2:44)
14. Billy Ray Cyrus & Miley Cyrus - I Learned From You (3:24)
Exact Audio Copy V1.3 from 2. September 2016

Отчёт EAC об извлечении, выполненном 24. марта 2017, 18:08

Hannah Montana / Hannah Montana (Russian Edition)

Дисковод: PIONEER DVD-RW DVR-215D Adapter: 1 ID: 0

Режим чтения : ДостоверностьИспользование точного потока : ДаОтключение кэша аудио : ДаИспользование указателей C2 : Нет

Коррекция смещения при чтении : 48Способность читать области Lead-in и Lead-out : НетЗаполнение пропущенных сэмплов тишиной : ДаУдаление блоков с тишиной в начале и конце : НетПри вычислениях CRC использовались нулевые сэмплы : ДаИнтерфейс : Встроенный Win32-интерфейс для Win NT/2000

Выходной формат : Пользовательский кодировщикВыбранный битрейт : 768 kBit/sКачество : ВысокийДобавление ID3-тега : НетУтилита сжатия : E:\Проги\EAC\FLAC\FLAC.EXEДополнительные параметры : -6 -V -T "ARTIST=%artist%" -T "TITLE=%title%" -T "ALBUM=%albumtitle%" -T "DATE=%year%" -T "TRACKNUMBER=%tracknr%" -T "GENRE=%genre%" -T "COMMENT=%comment%" -T "BAND=%albuminterpret%" -T "ALBUMARTIST=%albuminterpret%" -T "COMPOSER=%composer%" %haslyrics%--tag-from-file=LYRICS="%lyricsfile%"%haslyrics% -T "DISCNUMBER=%cdnumber%" -T "TOTALDISCS=%totalcds%" -T "TOTALTRACKS=%numtracks%" %hascover%--picture="%coverfile%"%hascover% %source% -o %dest%

TOC извлечённого CD

Трек | Старт | Длительность | Начальный сектор | Конечный сектор --------------------------------------------------------------------- 1 | 0:00.00 | 2:54.29 | 0 | 13078 2 | 2:54.29 | 2:54.23 | 13079 | 26151 3 | 5:48.52 | 3:14.73 | 26152 | 40774 4 | 9:03.50 | 3:14.29 | 40775 | 55353 5 | 12:18.04 | 3:09.73 | 55354 | 69601 6 | 15:28.02 | 3:03.47 | 69602 | 83373 7 | 18:31.49 | 3:06.03 | 83374 | 97326 8 | 21:37.52 | 3:07.37 | 97327 | 111388 9 | 24:45.14 | 2:58.64 | 111389 | 124802 10 | 27:44.03 | 4:24.25 | 124803 | 144627 11 | 32:08.28 | 3:33.19 | 144628 | 160621 12 | 35:41.47 | 3:35.05 | 160622 | 176751 13 | 39:16.52 | 2:44.29 | 176752 | 189080 14 | 42:01.06 | 3:23.51 | 189081 | 204356

Характеристики диапазона извлечения и сообщения об ошибках

Выбранный диапазон

Имя файла C:\Users\Alex Coyne\Desktop\My TV\Новая папка\Hannah Montana (Russian Edition).wav

Пиковый уровень 100.0 % Скорость извлечения 6.9 X Качество диапазона 100.0 % CRC теста 3848A3C6 CRC копии 3848A3C6 Копирование... OK

Ошибок не произошло

AccurateRip: сводка

Трек 1 отсутствует в базе данныхТрек 2 отсутствует в базе данныхТрек 3 отсутствует в базе данныхТрек 4 отсутствует в базе данныхТрек 5 отсутствует в базе данныхТрек 6 отсутствует в базе данныхТрек 7 отсутствует в базе данныхТрек 8 отсутствует в базе данныхТрек 9 отсутствует в базе данныхТрек 10 отсутствует в базе данныхТрек 11 отсутствует в базе данныхТрек 12 отсутствует в базе данныхТрек 13 отсутствует в базе данныхТрек 14 отсутствует в базе данных

Ни одного трека нет в базе AccurateRip

Конец отчёта

==== Контрольная сумма отчёта 99801DA85A185CECEEB82F537BA4C71D5264801431663856B2BC8E844476D7A9 ====
REM GENRE SoundtrackREM DATE 2008REM DISCID B40AA40EREM COMMENT "ExactAudioCopy v1.3"CATALOG 0000000000000PERFORMER "Hannah Montana"TITLE "Hannah Montana (Russian Edition)"REM COMPOSER ""FILE "Hannah Montana (Russian Edition).flac" WAVE TRACK 01 AUDIO TITLE "Две жизни" PERFORMER "Мария Иващенко" REM COMPOSER "" INDEX 01 00:00:00 TRACK 02 AUDIO TITLE "The Best of Both Worlds" PERFORMER "Hannah Montana" REM COMPOSER "" INDEX 01 02:54:29 TRACK 03 AUDIO TITLE "Who Said" PERFORMER "Hannah Montana" REM COMPOSER "" INDEX 01 05:48:52 TRACK 04 AUDIO TITLE "Just Like You" PERFORMER "Hannah Montana" REM COMPOSER "" INDEX 01 09:03:50 TRACK 05 AUDIO TITLE "Pumpin' Up the Party" PERFORMER "Hannah Montana" REM COMPOSER "" INDEX 01 12:18:04 TRACK 06 AUDIO TITLE "If We Were a Movie" PERFORMER "Hannah Montana" REM COMPOSER "" INDEX 01 15:28:02 TRACK 07 AUDIO TITLE "I Got Nerve" PERFORMER "Hannah Montana" REM COMPOSER "" INDEX 01 18:31:49 TRACK 08 AUDIO TITLE "The Other Side of Me" PERFORMER "Hannah Montana" REM COMPOSER "" INDEX 01 21:37:52 TRACK 09 AUDIO TITLE "This Is the Life" PERFORMER "Hannah Montana" REM COMPOSER "" INDEX 01 24:45:14 TRACK 10 AUDIO TITLE "Pop Princess" PERFORMER "The Click Five" REM COMPOSER "" INDEX 00 27:43:64 INDEX 01 27:44:03 TRACK 11 AUDIO TITLE "She's No You" PERFORMER "Jesse McCartney" REM COMPOSER "" INDEX 01 32:08:28 TRACK 12 AUDIO TITLE "Find Yourself In You" PERFORMER "Everlife" REM COMPOSER "" INDEX 01 35:41:47 TRACK 13 AUDIO TITLE "Shining Star" PERFORMER "B5" REM COMPOSER "" INDEX 01 39:16:52 TRACK 14 AUDIO TITLE "I Learned From You" PERFORMER "Billy Ray Cyrus & Miley Cyrus" REM COMPOSER "" INDEX 01 42:01:06


Трекер:  [ 24-Мар-2017 17:30 ]

  

Скачать .torrent

Размер .torrent файла 14 KB


Размер: 341 MB
Хэш (hash) релиза: acf2f24158fa904c175d1e7284452c4f7615ec7b

Еще никто не оставлял запись к записи скачать торрент Ханна Монтана Hannah Montana . Будь первым!

!Обратная связь