Скачать через торрент музыку Кунг-фу: Возрождение легенды Kung Fu - The Legend Continues бесплатно без регистрации torrent

Если у вас наблюдаются проблемы со скриншотами, переходом по ссылками, скачиванием торрентов - проблемы в блокировщике рекламы AdBlock. #хорошегоДня!


Статистика раздачи
Размер:  292 MB   |    Зарегистрирован:  8 месяцев   |    .torrent скачан:  42 раза   |   
Раздают:  1  
   
Загрузка...
 
Автор Сообщение

Galfimbul

avatar Galfimbul


Кунг-фу: Возрождение легенды / Kung Fu - The Legend Continues

Название альбома: Kung Fu - The Legend Continues (Original Television Soundtrack)
Жанр: Score
Композитор: Jeff Danna

Год выпуска диска: 1994
Год выпуска фильма: 1993-1997

Страна-производитель диска: Канада
Издатель (лейбл): Narada
Номер по каталогу: ND-66008

Аудиокодек: FLAC (*.flac)
Тип рипа: tracks+.cue
Битрейт аудио: lossless
Продолжительность: 00:46:29

Источник: eMule
Наличие сканов в содержимом раздачи: да

Треклист:
01. From Out of the Past
02. Theme from Kung Fu
03. A Place of Light and Song
04. The Promise
05. The Longest Night
06. Omeishan
07. Reunion
08. A Yellow Flower in Her Hair
09. Tomb-Searching for Tan
10. Dragon's Eye
11. Posse
12. Father and Son
13. Emperor
Exact Audio Copy V1.0 beta 2 from 29. April 2011

EAC extraction logfile from 9. January 2012, 11:08

Jeff Danna / Kung Fu: The Legend Continues

Used drive : HL-DT-STDVDRAM GH22NS50 Adapter: 2 ID: 2

Read mode : SecureUtilize accurate stream : YesDefeat audio cache : NoMake use of C2 pointers : Yes

Read offset correction : 667Overread into Lead-In and Lead-Out : NoFill up missing offset samples with silence : YesDelete leading and trailing silent blocks : NoNull samples used in CRC calculations : NoUsed interface : Installed external ASPI interface

Used output format : Internal WAV RoutinesSample format : 44.100 Hz; 16 Bit; Stereo

TOC of the extracted CD

Track | Start | Length | Start sector | End sector --------------------------------------------------------- 1 | 0:00.37 | 1:00.30 | 37 | 4566 2 | 1:00.67 | 2:22.35 | 4567 | 15251 3 | 3:23.27 | 4:29.45 | 15252 | 35471 4 | 7:52.72 | 5:24.18 | 35472 | 59789 5 | 13:17.15 | 2:21.05 | 59790 | 70369 6 | 15:38.20 | 1:24.52 | 70370 | 76721 7 | 17:02.72 | 3:59.23 | 76722 | 94669 8 | 21:02.20 | 1:48.47 | 94670 | 102816 9 | 22:50.67 | 5:07.03 | 102817 | 125844 10 | 27:57.70 | 5:09.52 | 125845 | 149071 11 | 33:07.47 | 4:03.28 | 149072 | 167324 12 | 37:11.00 | 3:31.27 | 167325 | 183176 13 | 40:42.27 | 5:47.63 | 183177 | 209264

Range status and errors

Selected range

Filename C:\Users\Administrador\Desktop\Jeff Danna - Kung Fu- The Legend Continues.wav

Peak level 96.8 % Extraction speed 24.9 X Range quality 100.0 % Copy CRC 966FE688 Copy OK

No errors occurred

AccurateRip summary

Track 1 accurately ripped (confidence 5) [5F9C868C] (AR v1)Track 2 accurately ripped (confidence 5) [52009E64] (AR v1)Track 3 accurately ripped (confidence 5) [44A55ED7] (AR v1)Track 4 accurately ripped (confidence 5) [8BAFE2B4] (AR v1)Track 5 accurately ripped (confidence 5) [BE1B0471] (AR v1)Track 6 accurately ripped (confidence 5) [E993EC54] (AR v1)Track 7 accurately ripped (confidence 5) [6241AEB8] (AR v1)Track 8 accurately ripped (confidence 5) [8CA90619] (AR v1)Track 9 accurately ripped (confidence 5) [69CAD8ED] (AR v1)Track 10 accurately ripped (confidence 5) [E689EC9E] (AR v1)Track 11 accurately ripped (confidence 5) [70D2ED36] (AR v1)Track 12 accurately ripped (confidence 5) [028EEF2E] (AR v1)Track 13 accurately ripped (confidence 5) [D4B5BB68] (AR v1)

All tracks accurately ripped

End of status report

==== Log checksum 2C62396F07FF167217649D3042D43F270D24A0263F1CB739039D5D024A2731F4 ====
REM ACCURATERIPID 0013c008-00cbc593-b10ae50dREM GENRE "Soundtrack"REM DATE 1994REM DISCID B10AE60DREM COMMENT "ExactAudioCopy v1.0b2"CATALOG 0000000000000PERFORMER "Jeff Danna"TITLE "Kung Fu: The Legend Continues"FILE "01.00. (HTOA).flac" WAVE TRACK 01 AUDIO TITLE "From Out of the Past" PERFORMER "Jeff Danna" INDEX 00 00:00:00FILE "01. From Out of the Past.flac" WAVE INDEX 01 00:00:00FILE "02. Theme from Kung Fu.flac" WAVE TRACK 02 AUDIO TITLE "Theme from Kung Fu" PERFORMER "Jeff Danna" INDEX 01 00:00:00 TRACK 03 AUDIO TITLE "A Place of Light and Song" PERFORMER "Jeff Danna" INDEX 00 02:21:25FILE "03. A Place of Light and Song.flac" WAVE INDEX 01 00:00:00 TRACK 04 AUDIO TITLE "The Promise" PERFORMER "Jeff Danna" INDEX 00 04:26:68FILE "04. The Promise.flac" WAVE INDEX 01 00:00:00FILE "05. The Longest Night.flac" WAVE TRACK 05 AUDIO TITLE "The Longest Night" PERFORMER "Jeff Danna" INDEX 01 00:00:00FILE "06. Omeishan.flac" WAVE TRACK 06 AUDIO TITLE "Omeishan" PERFORMER "Jeff Danna" INDEX 01 00:00:00 TRACK 07 AUDIO TITLE "Reunion" PERFORMER "Jeff Danna" INDEX 00 01:23:65FILE "07. Reunion.flac" WAVE INDEX 01 00:00:00 TRACK 08 AUDIO TITLE "A Yellow Flower in Her Hair" PERFORMER "Jeff Danna" INDEX 00 03:58:16FILE "08. A Yellow Flower in Her Hair.flac" WAVE INDEX 01 00:00:00FILE "09. Tomb-Searching for Tan.flac" WAVE TRACK 09 AUDIO TITLE "Tomb-Searching for Tan" PERFORMER "Jeff Danna" INDEX 01 00:00:00FILE "10. Dragon's Eye.flac" WAVE TRACK 10 AUDIO TITLE "Dragon's Eye" PERFORMER "Jeff Danna" INDEX 01 00:00:00 TRACK 11 AUDIO TITLE "Posse" PERFORMER "Jeff Danna" INDEX 00 05:06:17FILE "11. Posse.flac" WAVE INDEX 01 00:00:00 TRACK 12 AUDIO TITLE "Father and Son " PERFORMER "Jeff Danna" INDEX 00 04:02:51FILE "12. Father and Son .flac" WAVE INDEX 01 00:00:00 TRACK 13 AUDIO TITLE "Emperor" PERFORMER "Jeff Danna" INDEX 00 03:29:57FILE "13. Emperor.flac" WAVE INDEX 01 00:00:00
AUDIOCHECKER v2.0 beta (build 457) - by Dester - opdester@freemail.hu~~~~~~~~~~~~~~~~~~~~~~~~~~~~~~~~~~

Started at: понедельник, 27. 03. 2017. - 23:40.0513 files found

01 -===- E:\Jeff Danna - Kung Fu - The Legend Continues (1994) [FLAC]\01. From Out of the Past.flac Extracted successfully Conclusion: this track is CDDA with probability 99% Tempfile successfully deleted.

02 -===- E:\Jeff Danna - Kung Fu - The Legend Continues (1994) [FLAC]\02. Theme from Kung Fu.flac Extracted successfully Conclusion: this track is CDDA with probability 100% Tempfile successfully deleted.

03 -===- E:\Jeff Danna - Kung Fu - The Legend Continues (1994) [FLAC]\03. A Place of Light and Song.flac Extracted successfully Conclusion: this track is CDDA with probability 54% Tempfile successfully deleted.

04 -===- E:\Jeff Danna - Kung Fu - The Legend Continues (1994) [FLAC]\04. The Promise.flac Extracted successfully Conclusion: this track is CDDA with probability 100% Tempfile successfully deleted.

05 -===- E:\Jeff Danna - Kung Fu - The Legend Continues (1994) [FLAC]\05. The Longest Night.flac Extracted successfully Conclusion: this track is CDDA with probability 100% Tempfile successfully deleted.

06 -===- E:\Jeff Danna - Kung Fu - The Legend Continues (1994) [FLAC]\06. Omeishan.flac Extracted successfully Conclusion: this track is CDDA with probability 100% Tempfile successfully deleted.

07 -===- E:\Jeff Danna - Kung Fu - The Legend Continues (1994) [FLAC]\07. Reunion.flac Extracted successfully Conclusion: this track is CDDA with probability 100% Tempfile successfully deleted.

08 -===- E:\Jeff Danna - Kung Fu - The Legend Continues (1994) [FLAC]\08. A Yellow Flower in Her Hair.flac Extracted successfully Conclusion: this track is CDDA with probability 100% Tempfile successfully deleted.

09 -===- E:\Jeff Danna - Kung Fu - The Legend Continues (1994) [FLAC]\09. Tomb-Searching for Tan.flac Extracted successfully Conclusion: this track is CDDA with probability 100% Tempfile successfully deleted.

10 -===- E:\Jeff Danna - Kung Fu - The Legend Continues (1994) [FLAC]\10. Dragon's Eye.flac Extracted successfully Conclusion: this track is CDDA with probability 100% Tempfile successfully deleted.

11 -===- E:\Jeff Danna - Kung Fu - The Legend Continues (1994) [FLAC]\11. Posse.flac Extracted successfully Conclusion: this track is CDDA with probability 100% Tempfile successfully deleted.

12 -===- E:\Jeff Danna - Kung Fu - The Legend Continues (1994) [FLAC]\12. Father and Son.flac Extracted successfully Conclusion: this track is CDDA with probability 100% Tempfile successfully deleted.

13 -===- E:\Jeff Danna - Kung Fu - The Legend Continues (1994) [FLAC]\13. Emperor.flac Extracted successfully Conclusion: this track is CDDA with probability 87% Tempfile successfully deleted.

Finished at: понедельник, 27. 03. 2017. - 23:42.10 (operation time: 0:02.05)


Трекер:  [ 27-Мар-2017 23:00 ]

  

Скачать .torrent

Размер .torrent файла 13 KB


Размер: 292 MB
Хэш (hash) релиза: 2b942cb0c03a9425ab7dc27e6d28c5ae102568fd

Еще никто не оставлял запись к записи скачать торрент Кунг-фу: Возрождение легенды Kung Fu - The Legend Continues . Будь первым!

!Обратная связь