Скачать через торрент Прощай, унылый учитель Zan Sayonara Zetsubou Sensei Bangaichi бесплатно Аниме Все серии на русском torrent

Если у вас наблюдаются проблемы со скриншотами, переходом по ссылками, скачиванием торрентов - проблемы в блокировщике рекламы AdBlock. #хорошегоДня!


Статистика раздачи
Размер:  4.18 GB   |    Зарегистрирован:  8 месяцев   |    .torrent скачан:  23 раза   |   
Раздают:  1  
   
Загрузка...
 
Автор Сообщение

Galfimbul

avatar Galfimbul


Прощай, унылый учитель / Zan Sayonara Zetsubou Sensei Bangaichi
Страна: Япония
Год выпуска: c 17.11.2009 по 17.02.2010
Тип: OVA
Жанр: Комедия, школа, пародия
Продолжительность: 2 эп. по 25 мин
Русские субтитры:
Переводчик: Drakonika
Редактор/Оформление: Glen or Glenda

Режиссер: Симбо Акиюки
Снято по манге: Прощай, безрадостный сэнсэй
Автор оригинала: Кумэта Кодзи

Студия:

Описание: Прощальная порция из двух серий от SHAFT - именно то, чего вы от нее ждете.
Логичное продолжение третьего сезона, чуть более экспериментальное в стиле второго сезона, но все же не выходящее за рамки.
Не увидите пластилиновой анимации или детективов об отчаянных девушках, но фанатам конечно смотреть, парочку безумств сериал еще выдаст.

"Мы никогда не забудем их глаза когда они услышали о продажах третьего сезона".
Вот так заканчивается одно из самых выдающихся, на мой взгляд, аниме последнего времени. © Brakiss

Качество: BDRip Kuramori

Тип релиза: Без хардсаба

Формат видео: MPEG4
<div style="margin-left: 2em" class="post-ul">Видео: AVC (10 bits), 1920x1080, 23.976 fps, 9969 Kbps
Аудио: японский, FLAC 2 канала, 48 КГц, 701 Кбит/сек
2. Аудио: MP3, 48000Hz, ~192 Kbps, 2ch Язык Русский (внешним файлом) Одноголосая (муж) от Vulpes Vulpes
01. Volume 1
02. Volume 2
Общее
Уникальный идентификатор : 172882601652985968642998776431548955523 (0x820FFA5A30E60225AD35CC2E9B49FB83)
Полное имя : C:\Zan Sayonara Zetsubou Sensei Bangaichi [BD x264 1920x1080 FLAC] [km]\Zan Sayonara Zetsubou Sensei Bangaichi 01 [BD x264 1920x1080 FLAC] [km].mkv
Формат : Matroska
Версия формата : Version 4 / Version 2
Размер файла : 2,08 Гбайт
Продолжительность : 25 м. 32 с.
Режим общего битрейта : Переменный
Общий поток : 11,7 Мбит/сек
Дата кодирования : UTC 2017-02-13 04:56:58
Программа кодирования : mkvmerge v7.9.0 ('Birds') 64bit
Библиотека кодирования : libebml v1.3.1 + libmatroska v1.4.2

Видео
Идентификатор : 1
Формат : AVC
Формат/Информация : Advanced Video Codec
Профиль формата : High 10@L4.1
Параметр CABAC формата : Да
Параметр ReFrames формата : 4 кадра
Идентификатор кодека : V_MPEG4/ISO/AVC
Продолжительность : 25 м. 32 с.
Битрейт : 11,0 Мбит/сек
Ширина : 1920 пикселей
Высота : 1080 пикселей
Соотношение сторон : 16:9
Режим частоты кадров : Переменный
Частота кадров : 25,685 кадров/сек
Частота кадров в оригинале : 25,684 кадров/сек
Цветовое пространство : YUV
Субдискретизация насыщенности : 4:2:0
Битовая глубина : 10 бит
Тип развёртки : Прогрессивная
Бит/(Пиксели*Кадры) : 0.206
Размер потока : 1,96 Гбайт (94%)
Библиотека кодирования : x264 core 148 r2744 b97ae06
Настройки программы : cabac=1 / ref=4 / deblock=1:0:0 / analyse=0x3:0x133 / me=tesa / subme=11 / psy=1 / psy_rd=0.95:0.00 / mixed_ref=1 / me_range=24 / chroma_me=1 / trellis=2 / 8x8dct=1 / cqm=0 / deadzone=21,11 / fast_pskip=0 / chroma_qp_offset=-2 / threads=6 / lookahead_threads=1 / sliced_threads=0 / nr=0 / decimate=0 / interlaced=0 / bluray_compat=0 / constrained_intra=0 / bframes=9 / b_pyramid=2 / b_adapt=2 / b_bias=0 / direct=3 / weightb=1 / open_gop=0 / weightp=2 / keyint=240 / keyint_min=23 / scenecut=40 / intra_refresh=0 / rc=crf / mbtree=0 / crf=17.0 / qcomp=0.60 / qpmin=0 / qpmax=41 / qpstep=4 / ip_ratio=1.40 / pb_ratio=1.30 / aq=1:0.80 / zones=36448,39371,crf=15.5
Default : Да
Forced : Нет
Цветовой диапазон : Limited
Коэффициенты матрицы : BT.709

Аудио
Идентификатор : 2
Формат : FLAC
Формат/Информация : Free Lossless Audio Codec
Идентификатор кодека : A_FLAC
Продолжительность : 25 м. 32 с.
Вид битрейта : Переменный
Битрейт : 701 Кбит/сек
Каналы : 2 канала
Расположение каналов : Front: L R
Частота : 48,0 КГц
Частота кадров : 11,719 кадров/сек (4096 spf)
Битовая глубина : 16 бит
Размер потока : 128 Мбайт (6%)
Библиотека кодирования : libFLAC 1.3.1 (UTC 2014-11-25)
Язык : Japanese
Default : Да
Forced : Нет
Отличия:

...5118930 - antiBILLotic BDRip 1080
</div>

Трекер:  [ 28-Мар-2017 13:30 ]

  

Скачать .torrent

Размер .torrent файла 11 KB


Размер: 4.18 GB
Хэш (hash) релиза: 5c8c6f0fde637046768e10ef83c772c84724336e
Подписка на обновления:

Торренты, похожие на Прощай, унылый учитель Zan Sayonara Zetsubou Sensei Bangaichi скачать торрент

Форум Название Автор Размер S L Добавлен
Аниме | HD Rips ·· Прощай, унылый учитель (OВA-2) / Zan Sayonara Zetsubou Sensei Bangaichi (Симбо Акиюки) [OVA] [2 из 2] [без хардсаба] [RUS(ext), JAP+SUB] [2009 г., комедия, школа, пародия, BDRemux] [1080i] Galfimbul 1272114066611.85 GB 0 0 1447885861

01:31

19-Ноя-15

Еще никто не оставлял запись к записи скачать торрент Прощай, унылый учитель Zan Sayonara Zetsubou Sensei Bangaichi . Будь первым!

!Обратная связь