Скачать через торрент музыку Рэмбо: Первая кровь | 2 | Рэмбо 3 | IV First Blood | Part II | III | Rambo бесплатно без регистрации torrent

Если у вас наблюдаются проблемы со скриншотами, переходом по ссылками, скачиванием торрентов - проблемы в блокировщике рекламы AdBlock. #хорошегоДня!


Статистика раздачи
Размер:  2.11 GB   |    Зарегистрирован:  8 месяцев   |    .torrent скачан:  29 раз   |   
Раздают:  1  
   
Загрузка...
 
Автор Сообщение

Galfimbul

avatar Galfimbul


Рэмбо: Первая кровь | 2 | Рэмбо 3 | IV / First Blood | Part II | III | Rambo (4)

Жанр: Score
Композитор: Jerry Goldsmith
Год выпуска диска: 2005-2016
Год выпуска фильма: 1982-2008

Страна-производитель диска: USA
Издатель (лейбл): Intrada / Lionsgate
Номер по каталогу: -
Аудиокодек: FLAC (*.flac)

Тип рипа: tracks+.cue
Битрейт аудио: lossless
Продолжительность: 06:21:09
Источник: CD / What.CD
Наличие сканов в содержимом раздачи: да
[spoiler="2010 - Рэмбо: Первая кровь / First Blood [Complete, Intrada MAF 7111] by Jerry Goldsmith (01:27:20)"]
CD1 - Complete Original Soundtrack
01 - Theme from First Blood (Pop Orchestra Version)
02 - Home Coming
03 - My Town
04 - Under Arrest
05 - The Razor
06 - A Head Start
07 - Hanging on
08 - Over the Cliff
09 - A Stitch in Time
10 - Mountain Hunt
11 - No Trace
12 - First Blood
13 - The Tunnel
14 - Escape Route
15 - The Truck
16 - No Power / Night Attack
17 - Hide and Seek
18 - It's a Long Road (Instrumental)
19 - It's a Long Road (Vocal: Dan Hill)

CD2 - Original 1982 Soundtrack Album
01 - It's a Long Road
02 - Escape Route
03 - First Blood
04 - The Tunnel
05 - Hanging on
06 - Home Coming
07 - Mountain Hunt
08 - My Town
09 - The Razor
10 - Over the Cliff
11 - It's a Long Road (Instrumental)

The Extras
12 - It's a Long Road (Recording Session Piano)
13 - Carolco Logo
14 - Rambo (Special Summer 1984 Trailer)
<div class="sp-wrap">
<div class="sp-head folded">Лог создания рипа CD1</div>
<div class="sp-body">

Exact Audio Copy V1.0 beta 3 from 29. August 2011

EAC extraction logfile from 10. April 2012, 17:25

Jerry Goldsmith / First Blood (Complete Original Soundtrack) Disc 1

Used drive : PIONEER BD-RW BDR-207D Adapter: 6 ID: 0

Read mode : SecureUtilize accurate stream : YesDefeat audio cache : YesMake use of C2 pointers : No

Read offset correction : 667Overread into Lead-In and Lead-Out : NoFill up missing offset samples with silence : YesDelete leading and trailing silent blocks : NoNull samples used in CRC calculations : YesUsed interface : Native Win32 interface for Win NT & 2000Gap handling : Appended to previous track

Used output format : User Defined EncoderSelected bitrate : 1024 kBit/sQuality : HighAdd ID3 tag : NoCommand line compressor : C:\Program Files (x86)\Exact Audio Copy\FLAC\FLAC.EXEAdditional command line options : -8 -V -T "ARTIST=%artist%" -T "TITLE=%title%" -T "ALBUM=%albumtitle%" -T "DATE=%year%" -T "TRACKNUMBER=%tracknr%" -T "GENRE=%genre%" -T "PERFORMER=%albuminterpret%" -T "COMPOSER=%composer%" %haslyrics%--tag-from-file=LYRICS="%lyricsfile%"%haslyrics% -T "ALBUMARTIST=%albumartist%" -T "DISCNUMBER=%cdnumber%" -T "TOTALDISCS=%totalcds%" -T "TOTALTRACKS=%numtracks%" -T "COMMENT=%comment%" %source% -o %dest%

TOC of the extracted CD

Track | Start | Length | Start sector | End sector --------------------------------------------------------- 1 | 0:00.00 | 4:10.32 | 0 | 18781 2 | 4:10.32 | 2:25.10 | 18782 | 29666 3 | 6:35.42 | 1:02.67 | 29667 | 34383 4 | 7:38.34 | 0:48.05 | 34384 | 37988 5 | 8:26.39 | 2:39.64 | 37989 | 49977 6 | 11:06.28 | 1:06.36 | 49978 | 54963 7 | 12:12.64 | 2:06.05 | 54964 | 64418 8 | 14:18.69 | 1:28.72 | 64419 | 71090 9 | 15:47.66 | 1:02.41 | 71091 | 75781 10 | 16:50.32 | 4:56.22 | 75782 | 98003 11 | 21:46.54 | 0:43.01 | 98004 | 101229 12 | 22:29.55 | 4:49.01 | 101230 | 122905 13 | 27:18.56 | 3:28.65 | 122906 | 138570 14 | 30:47.46 | 2:41.02 | 138571 | 150647 15 | 33:28.48 | 1:02.53 | 150648 | 155350 16 | 34:31.26 | 2:51.48 | 155351 | 168223 17 | 37:22.74 | 1:00.11 | 168224 | 172734 18 | 38:23.10 | 3:27.01 | 172735 | 188260 19 | 41:50.11 | 3:24.54 | 188261 | 203614

Track 1

Filename C:\Users\Phenom\Desktop\CD 1\01. Theme From First Blood (Pop Orchestra Version).wav

Pre-gap length 0:00:02.00

Peak level 94.6 % Extraction speed 4.6 X Track quality 100.0 % Test CRC FEC0459B Copy CRC FEC0459B Accurately ripped (confidence 7) [0D47AC97] (AR v2) Copy OK

Track 2

Filename C:\Users\Phenom\Desktop\CD 1\02. Home Coming.wav

Peak level 40.9 % Extraction speed 4.5 X Track quality 100.0 % Test CRC 6110F30D Copy CRC 6110F30D Accurately ripped (confidence 7) [F7AB0FEB] (AR v2) Copy OK

Track 3

Filename C:\Users\Phenom\Desktop\CD 1\03. My Town.wav

Peak level 43.7 % Extraction speed 3.6 X Track quality 100.0 % Test CRC 341A71E1 Copy CRC 341A71E1 Accurately ripped (confidence 7) [08F36559] (AR v2) Copy OK

Track 4

Filename C:\Users\Phenom\Desktop\CD 1\04. Under Arrest.wav

Peak level 92.7 % Extraction speed 3.3 X Track quality 100.0 % Test CRC 3D85855B Copy CRC 3D85855B Accurately ripped (confidence 7) [D5B49CFD] (AR v2) Copy OK

Track 5

Filename C:\Users\Phenom\Desktop\CD 1\05. The Razor.wav

Peak level 94.6 % Extraction speed 5.0 X Track quality 100.0 % Test CRC 000B7CE4 Copy CRC 000B7CE4 Accurately ripped (confidence 7) [976AF12B] (AR v2) Copy OK

Track 6

Filename C:\Users\Phenom\Desktop\CD 1\06. A Head Start.wav

Peak level 87.5 % Extraction speed 4.1 X Track quality 100.0 % Test CRC 2258398C Copy CRC 2258398C Accurately ripped (confidence 7) [BFADF06B] (AR v2) Copy OK

Track 7

Filename C:\Users\Phenom\Desktop\CD 1\07. Hanging On.wav

Peak level 94.5 % Extraction speed 5.0 X Track quality 100.0 % Test CRC 32C4EF41 Copy CRC 32C4EF41 Accurately ripped (confidence 7) [FAE88BF3] (AR v2) Copy OK

Track 8

Filename C:\Users\Phenom\Desktop\CD 1\08. Over The Cliff.wav

Peak level 95.0 % Extraction speed 3.6 X Track quality 99.8 % Test CRC 6FFDE0EA Copy CRC 6FFDE0EA Accurately ripped (confidence 7) [E150E829] (AR v2) Copy OK

Track 9

Filename C:\Users\Phenom\Desktop\CD 1\09. A Stitch In Time.wav

Peak level 16.5 % Extraction speed 4.2 X Track quality 100.0 % Test CRC C7173D32 Copy CRC C7173D32 Accurately ripped (confidence 7) [C47BD4E2] (AR v2) Copy OK

Track 10

Filename C:\Users\Phenom\Desktop\CD 1\10. Mountain Hunt.wav

Peak level 94.6 % Extraction speed 6.2 X Track quality 100.0 % Test CRC F8870852 Copy CRC F8870852 Accurately ripped (confidence 7) [54A75E8C] (AR v2) Copy OK

Track 11

Filename C:\Users\Phenom\Desktop\CD 1\11. No Trace.wav

Peak level 7.7 % Extraction speed 3.8 X Track quality 100.0 % Test CRC EEC02DDB Copy CRC EEC02DDB Accurately ripped (confidence 7) [F2DA427A] (AR v2) Copy OK

Track 12

Filename C:\Users\Phenom\Desktop\CD 1\12. First Blood.wav

Peak level 95.9 % Extraction speed 6.6 X Track quality 100.0 % Test CRC A3FE6DFE Copy CRC A3FE6DFE Accurately ripped (confidence 7) [B5F78777] (AR v2) Copy OK

Track 13

Filename C:\Users\Phenom\Desktop\CD 1\13. The Tunnel.wav

Peak level 94.4 % Extraction speed 6.6 X Track quality 100.0 % Test CRC 3FF895E4 Copy CRC 3FF895E4 Accurately ripped (confidence 7) [E3F17621] (AR v2) Copy OK

Track 14

Filename C:\Users\Phenom\Desktop\CD 1\14. Escape Route.wav

Peak level 93.9 % Extraction speed 5.4 X Track quality 99.9 % Test CRC 1FABDA3C Copy CRC 1FABDA3C Accurately ripped (confidence 7) [C4532C86] (AR v2) Copy OK

Track 15

Filename C:\Users\Phenom\Desktop\CD 1\15. The Truck.wav

Peak level 95.4 % Extraction speed 3.6 X Track quality 99.8 % Test CRC 61AFBDE8 Copy CRC 61AFBDE8 Accurately ripped (confidence 7) [252CD564] (AR v2) Copy OK

Track 16

Filename C:\Users\Phenom\Desktop\CD 1\16. No Power,Night Attack.wav

Peak level 94.5 % Extraction speed 5.8 X Track quality 99.9 % Test CRC 4C7163DD Copy CRC 4C7163DD Accurately ripped (confidence 7) [BA9AD1F3] (AR v2) Copy OK

Track 17

Filename C:\Users\Phenom\Desktop\CD 1\17. Hide And Seek.wav

Peak level 22.7 % Extraction speed 5.0 X Track quality 100.0 % Test CRC C0D50D4A Copy CRC C0D50D4A Accurately ripped (confidence 7) [092DED7A] (AR v2) Copy OK

Track 18

Filename C:\Users\Phenom\Desktop\CD 1\18. It's A Long Road (Instrumental).wav

Peak level 95.8 % Extraction speed 7.1 X Track quality 100.0 % Test CRC F99BC45B Copy CRC F99BC45B Accurately ripped (confidence 7) [4C737F89] (AR v2) Copy OK

Track 19

Filename C:\Users\Phenom\Desktop\CD 1\19. It's A Long Road (Vocal- Dan Hill).wav

Peak level 97.0 % Extraction speed 7.3 X Track quality 100.0 % Test CRC BB50DB3F Copy CRC BB50DB3F Accurately ripped (confidence 7) [7B780F76] (AR v2) Copy OK

All tracks accurately ripped

No errors occurred

End of status report

==== Log checksum A9A8C4DDDFA08E5F3310960EEC47FC247E8EDB82FD22E101FD7D3A004996AAF1 ====
[/spoiler]
REM GENRE SoundtrackREM DATE 2010REM DISCID E50A9A13REM COMMENT "ExactAudioCopy v1.0b3"PERFORMER "Jerry Goldsmith"TITLE "First Blood [Complete]"FILE "01 - Theme from First Blood (Pop Orchestra Version).wav" WAVE TRACK 01 AUDIO TITLE "Theme from First Blood (Pop Orchestra Version)" PERFORMER "Jerry Goldsmith" INDEX 01 00:00:00FILE "02 - Home Coming.wav" WAVE TRACK 02 AUDIO TITLE "Home Coming" PERFORMER "Jerry Goldsmith" INDEX 01 00:00:00FILE "03 - My Town.wav" WAVE TRACK 03 AUDIO TITLE "My Town" PERFORMER "Jerry Goldsmith" INDEX 01 00:00:00FILE "04 - Under Arrest.wav" WAVE TRACK 04 AUDIO TITLE "Under Arrest" PERFORMER "Jerry Goldsmith" INDEX 01 00:00:00FILE "05 - The Razor.wav" WAVE TRACK 05 AUDIO TITLE "The Razor" PERFORMER "Jerry Goldsmith" INDEX 01 00:00:00FILE "06 - A Head Start.wav" WAVE TRACK 06 AUDIO TITLE "A Head Start" PERFORMER "Jerry Goldsmith" INDEX 01 00:00:00FILE "07 - Hanging on.wav" WAVE TRACK 07 AUDIO TITLE "Hanging on" PERFORMER "Jerry Goldsmith" INDEX 01 00:00:00FILE "08 - Over the Cliff.wav" WAVE TRACK 08 AUDIO TITLE "Over the Cliff" PERFORMER "Jerry Goldsmith" INDEX 01 00:00:00FILE "09 - A Stitch in Time.wav" WAVE TRACK 09 AUDIO TITLE "A Stitch in Time" PERFORMER "Jerry Goldsmith" INDEX 01 00:00:00FILE "10 - Mountain Hunt.wav" WAVE TRACK 10 AUDIO TITLE "Mountain Hunt" PERFORMER "Jerry Goldsmith" INDEX 01 00:00:00FILE "11 - No Trace.wav" WAVE TRACK 11 AUDIO TITLE "No Trace" PERFORMER "Jerry Goldsmith" FLAGS DCP INDEX 01 00:00:00FILE "12 - First Blood.wav" WAVE TRACK 12 AUDIO TITLE "First Blood" PERFORMER "Jerry Goldsmith" INDEX 01 00:00:00FILE "13 - The Tunnel.wav" WAVE TRACK 13 AUDIO TITLE "The Tunnel" PERFORMER "Jerry Goldsmith" INDEX 01 00:00:00FILE "14 - Escape Route.wav" WAVE TRACK 14 AUDIO TITLE "Escape Route" PERFORMER "Jerry Goldsmith" INDEX 01 00:00:00FILE "15 - The Truck.wav" WAVE TRACK 15 AUDIO TITLE "The Truck" PERFORMER "Jerry Goldsmith" INDEX 01 00:00:00FILE "16 - No Power - Night Attack.wav" WAVE TRACK 16 AUDIO TITLE "No Power / Night Attack" PERFORMER "Jerry Goldsmith" INDEX 01 00:00:00FILE "17 - Hide and Seek.wav" WAVE TRACK 17 AUDIO TITLE "Hide and Seek" PERFORMER "Jerry Goldsmith" INDEX 01 00:00:00FILE "18 - It's a Long Road (Instrumental).wav" WAVE TRACK 18 AUDIO TITLE "It's a Long Road (Instrumental)" PERFORMER "Jerry Goldsmith" INDEX 01 00:00:00FILE "19 - It's a Long Road (Vocal- Dan Hill).wav" WAVE TRACK 19 AUDIO TITLE "It's a Long Road (Vocal: Dan Hill)" PERFORMER "Jerry Goldsmith" INDEX 01 00:00:00
Exact Audio Copy V1.0 beta 3 from 29. August 2011

EAC extraction logfile from 10. April 2012, 17:52

Jerry Goldsmith / First Blood Disc 2 (2010, ISC)

Used drive : PIONEER BD-RW BDR-207D Adapter: 6 ID: 0

Read mode : SecureUtilize accurate stream : YesDefeat audio cache : YesMake use of C2 pointers : No

Read offset correction : 667Overread into Lead-In and Lead-Out : NoFill up missing offset samples with silence : YesDelete leading and trailing silent blocks : NoNull samples used in CRC calculations : YesUsed interface : Native Win32 interface for Win NT & 2000Gap handling : Appended to previous track

Used output format : User Defined EncoderSelected bitrate : 1024 kBit/sQuality : HighAdd ID3 tag : NoCommand line compressor : C:\Program Files (x86)\Exact Audio Copy\FLAC\FLAC.EXEAdditional command line options : -8 -V -T "ARTIST=%artist%" -T "TITLE=%title%" -T "ALBUM=%albumtitle%" -T "DATE=%year%" -T "TRACKNUMBER=%tracknr%" -T "GENRE=%genre%" -T "PERFORMER=%albuminterpret%" -T "COMPOSER=%composer%" %haslyrics%--tag-from-file=LYRICS="%lyricsfile%"%haslyrics% -T "ALBUMARTIST=%albumartist%" -T "DISCNUMBER=%cdnumber%" -T "TOTALDISCS=%totalcds%" -T "TOTALTRACKS=%numtracks%" -T "COMMENT=%comment%" %source% -o %dest%

TOC of the extracted CD

Track | Start | Length | Start sector | End sector --------------------------------------------------------- 1 | 0:00.00 | 3:25.15 | 0 | 15389 2 | 3:25.15 | 2:40.57 | 15390 | 27446 3 | 6:05.72 | 4:39.41 | 27447 | 48412 4 | 10:45.38 | 4:04.39 | 48413 | 66751 5 | 14:50.02 | 3:29.52 | 66752 | 82478 6 | 18:19.54 | 2:24.73 | 82479 | 93351 7 | 20:44.52 | 6:05.13 | 93352 | 120739 8 | 26:49.65 | 1:58.68 | 120740 | 129657 9 | 28:48.58 | 3:10.64 | 129658 | 143971 10 | 31:59.47 | 2:05.74 | 143972 | 153420 11 | 34:05.46 | 3:00.51 | 153421 | 166971 12 | 37:06.22 | 3:21.36 | 166972 | 182082 13 | 40:27.58 | 0:20.74 | 182083 | 183656 14 | 40:48.57 | 1:17.12 | 183657 | 189443

Track 1

Filename C:\Users\Phenom\Desktop\CD 2\01. It's A Long Road.wav

Pre-gap length 0:00:02.00

Peak level 94.8 % Extraction speed 3.9 X Track quality 99.9 % Test CRC 983CF7A1 Copy CRC 983CF7A1 Accurately ripped (confidence 7) [6EA41F21] (AR v2) Copy OK

Track 2

Filename C:\Users\Phenom\Desktop\CD 2\02. Escape Route.wav

Peak level 94.3 % Extraction speed 4.4 X Track quality 100.0 % Test CRC CD16C8F7 Copy CRC CD16C8F7 Accurately ripped (confidence 7) [F99C9671] (AR v2) Copy OK

Track 3

Filename C:\Users\Phenom\Desktop\CD 2\03. First Blood.wav

Peak level 95.0 % Extraction speed 4.8 X Track quality 99.9 % Test CRC 3C77BE47 Copy CRC 3C77BE47 Accurately ripped (confidence 7) [03DC0C5C] (AR v2) Copy OK

Track 4

Filename C:\Users\Phenom\Desktop\CD 2\04. The Tunnel.wav

Peak level 94.5 % Extraction speed 5.6 X Track quality 100.0 % Test CRC 2E3EACD6 Copy CRC 2E3EACD6 Accurately ripped (confidence 7) [7D312908] (AR v2) Copy OK

Track 5

Filename C:\Users\Phenom\Desktop\CD 2\05. Hanging On.wav

Peak level 94.6 % Extraction speed 5.8 X Track quality 100.0 % Test CRC 1545A84A Copy CRC 1545A84A Accurately ripped (confidence 7) [D8DB995A] (AR v2) Copy OK

Track 6

Filename C:\Users\Phenom\Desktop\CD 2\06. Home Coming.wav

Peak level 40.9 % Extraction speed 5.6 X Track quality 100.0 % Test CRC 6847A941 Copy CRC 6847A941 Accurately ripped (confidence 7) [E61896BB] (AR v2) Copy OK

Track 7

Filename C:\Users\Phenom\Desktop\CD 2\07. Mountain Hunt.wav

Peak level 96.3 % Extraction speed 6.2 X Track quality 99.9 % Test CRC 1A38C2AB Copy CRC 1A38C2AB Accurately ripped (confidence 7) [E2430B9B] (AR v2) Copy OK

Track 8

Filename C:\Users\Phenom\Desktop\CD 2\08. My Town.wav

Peak level 43.7 % Extraction speed 5.8 X Track quality 100.0 % Test CRC 6D3CF0A5 Copy CRC 6D3CF0A5 Accurately ripped (confidence 7) [5D20E815] (AR v2) Copy OK

Track 9

Filename C:\Users\Phenom\Desktop\CD 2\09. The Razor.wav

Peak level 94.6 % Extraction speed 6.5 X Track quality 100.0 % Test CRC 8B63A606 Copy CRC 8B63A606 Accurately ripped (confidence 7) [849DB89E] (AR v2) Copy OK

Track 10

Filename C:\Users\Phenom\Desktop\CD 2\10. Over The Cliff.wav

Peak level 95.3 % Extraction speed 6.2 X Track quality 100.0 % Test CRC 1BF80C8D Copy CRC 1BF80C8D Accurately ripped (confidence 7) [66081F49] (AR v2) Copy OK

Track 11

Filename C:\Users\Phenom\Desktop\CD 2\11. It's A Long Road (Instrumental).wav

Peak level 95.6 % Extraction speed 6.8 X Track quality 100.0 % Test CRC 7A382964 Copy CRC 7A382964 Accurately ripped (confidence 7) [F6B5A6CA] (AR v2) Copy OK

Track 12

Filename C:\Users\Phenom\Desktop\CD 2\12. It's A Long Road (Recording Session Piano).wav

Peak level 71.9 % Extraction speed 5.9 X Track quality 99.9 % Test CRC 19EEC50D Copy CRC 19EEC50D Accurately ripped (confidence 7) [5819A857] (AR v2) Copy OK

Track 13

Filename C:\Users\Phenom\Desktop\CD 2\13. Carolco Logo.wav

Peak level 99.2 % Extraction speed 2.8 X Track quality 100.0 % Test CRC 98C0A240 Copy CRC 98C0A240 Accurately ripped (confidence 7) [2973D549] (AR v2) Copy OK

Track 14

Filename C:\Users\Phenom\Desktop\CD 2\14. Rambo (Special Summer 1984 Trailer).wav

Peak level 98.4 % Extraction speed 5.6 X Track quality 100.0 % Test CRC 5C8FD674 Copy CRC 5C8FD674 Accurately ripped (confidence 7) [92BD024C] (AR v2) Copy OK

All tracks accurately ripped

No errors occurred

End of status report

==== Log checksum 0184BB37EA4A0B3B367A5989DD25366E723C9F7C94F3C3ACF1FF73663DC23147 ====
REM GENRE SoundtrackREM DATE 2010REM DISCID A709DD0EREM COMMENT "ExactAudioCopy v1.0b3"PERFORMER "Jerry Goldsmith"TITLE "First Blood [Complete]"FILE "01 - It's a Long Road (Vocal- Dan Hill).wav" WAVE TRACK 01 AUDIO TITLE "It's a Long Road (Vocal: Dan Hill)" PERFORMER "Jerry Goldsmith" INDEX 01 00:00:00FILE "02 - Escape Route.wav" WAVE TRACK 02 AUDIO TITLE "Escape Route" PERFORMER "Jerry Goldsmith" INDEX 01 00:00:00FILE "03 - First Blood.wav" WAVE TRACK 03 AUDIO TITLE "First Blood" PERFORMER "Jerry Goldsmith" INDEX 01 00:00:00FILE "04 - The Tunnel.wav" WAVE TRACK 04 AUDIO TITLE "The Tunnel" PERFORMER "Jerry Goldsmith" INDEX 01 00:00:00FILE "05 - Hanging on.wav" WAVE TRACK 05 AUDIO TITLE "Hanging on" PERFORMER "Jerry Goldsmith" FLAGS DCP INDEX 01 00:00:00FILE "06 - Home Coming.wav" WAVE TRACK 06 AUDIO TITLE "Home Coming" PERFORMER "Jerry Goldsmith" INDEX 01 00:00:00FILE "07 - Mountain Hunt.wav" WAVE TRACK 07 AUDIO TITLE "Mountain Hunt" PERFORMER "Jerry Goldsmith" INDEX 01 00:00:00FILE "08 - My Town.wav" WAVE TRACK 08 AUDIO TITLE "My Town" PERFORMER "Jerry Goldsmith" INDEX 01 00:00:00FILE "09 - The Razor.wav" WAVE TRACK 09 AUDIO TITLE "The Razor" PERFORMER "Jerry Goldsmith" INDEX 01 00:00:00FILE "10 - Over the Cliff.wav" WAVE TRACK 10 AUDIO TITLE "Over the Cliff" PERFORMER "Jerry Goldsmith" INDEX 01 00:00:00FILE "11 - It's a Long Road (Instrumental).wav" WAVE TRACK 11 AUDIO TITLE "It's a Long Road (Instrumental)" PERFORMER "Jerry Goldsmith" INDEX 01 00:00:00FILE "12 - It's a Long Road (Recording Session Piano).wav" WAVE TRACK 12 AUDIO TITLE "It's a Long Road (Recording Session Piano)" PERFORMER "Jerry Goldsmith" INDEX 01 00:00:00FILE "13 - Carolco Logo.wav" WAVE TRACK 13 AUDIO TITLE "Carolco Logo" PERFORMER "Jerry Goldsmith" INDEX 01 00:00:00FILE "14 - Rambo (Special Summer 1984 Trailer).wav" WAVE TRACK 14 AUDIO TITLE "Rambo (Special Summer 1984 Trailer)" PERFORMER "Jerry Goldsmith" INDEX 01 00:00:00
<div class="q-wrap">
<div class="q-head"><b>Цитата:</b></div>
<div class="q">Score: 100 (out of 100)</div>
</div>
</div>
</div>
[spoiler="2016 - Рэмбо: Первая кровь 2 / Rambo: First Blood Part II [Complete, Intrada INT 7149] by Jerry Goldsmith (02:20:20)"]
CD1 - Complete Original Soundtrack
01 - Carolco Logo
02 - Main Title
03 - The Map
04 - Preparation
05 - The Jump
06 - The Snake
07 - The Pirates
08 - Stories / Percussion (Overlay)
09 - The Camp
10 - Forced Entry
11 - The Cage
12 - River Crash
13 - The Gunboat
14 - Betrayed.flac
15 - Bring Him Up
16 - The Eyes
17 - Escape from Torture
18 - Ambush
19 - Revenge
20 - Bowed Down
21 - Pilot Over
22 - Village Attack / Helicopter Fight
23 - Pre Lift off / Home Flight
24 - Day by Day
25 - Peace in Our Life (performed by Frank Stallone)
<div class="sp-wrap">
<div class="sp-head folded">Лог создания рипа CD1</div>
<div class="sp-body">

Exact Audio Copy V1.1 from 23. June 2015

EAC extraction logfile from 15. August 2016, 20:42

Jerry Goldsmith / Rambo: First Blood Part II

Used drive : HL-DT-STBDDVDRW CH30N Adapter: 1 ID: 0

Read mode : SecureUtilize accurate stream : YesDefeat audio cache : YesMake use of C2 pointers : No

Read offset correction : 6Overread into Lead-In and Lead-Out : NoFill up missing offset samples with silence : YesDelete leading and trailing silent blocks : NoNull samples used in CRC calculations : YesUsed interface : Native Win32 interface for Win NT & 2000Gap handling : Appended to previous track

Used output format : User Defined EncoderSelected bitrate : 1024 kBit/sQuality : HighAdd ID3 tag : NoCommand line compressor : C:\Program Files (x86)\Exact Audio Copy\Flac\flac.exeAdditional command line options : -8 -V -T "artist=%artist%" -T "title=%title%" -T "album=%albumtitle%" -T "date=%year%" -T "tracknumber=%tracknr%" -T "genre=%genre%" %source%

TOC of the extracted CD

Track | Start | Length | Start sector | End sector --------------------------------------------------------- 1 | 0:00.00 | 0:18.17 | 0 | 1366 2 | 0:18.17 | 2:14.03 | 1367 | 11419 3 | 2:32.20 | 0:58.50 | 11420 | 15819 4 | 3:30.70 | 1:18.67 | 15820 | 21736 5 | 4:49.62 | 3:20.02 | 21737 | 36738 6 | 8:09.64 | 1:54.58 | 36739 | 45346 7 | 10:04.47 | 1:30.65 | 45347 | 52161 8 | 11:35.37 | 3:30.51 | 52162 | 67962 9 | 15:06.13 | 1:25.33 | 67963 | 74370 10 | 16:31.46 | 1:02.51 | 74371 | 79071 11 | 17:34.22 | 3:58.39 | 79072 | 96960 12 | 21:32.61 | 2:22.62 | 96961 | 107672 13 | 23:55.48 | 1:19.12 | 107673 | 113609 14 | 25:14.60 | 4:26.18 | 113610 | 133577 15 | 29:41.03 | 1:18.36 | 133578 | 139463 16 | 30:59.39 | 1:00.58 | 139464 | 144021 17 | 32:00.22 | 3:42.58 | 144022 | 160729 18 | 35:43.05 | 2:48.21 | 160730 | 173350 19 | 38:31.26 | 6:16.72 | 173351 | 201622 20 | 44:48.23 | 1:05.39 | 201623 | 206536 21 | 45:53.62 | 1:55.48 | 206537 | 215209 22 | 47:49.35 | 4:54.43 | 215210 | 237302 23 | 52:44.03 | 3:25.48 | 237303 | 252725 24 | 56:09.51 | 2:09.11 | 252726 | 262411 25 | 58:18.62 | 3:20.13 | 262412 | 277424

Track 1

Filename C:\Jerry Goldsmith - Rambo; First Blood Part II (Intrada INT 7149) [FLAC]\CD 1\01. Carolco Logo.wav

Pre-gap length 0:00:02.00

Peak level 100.0 % Extraction speed 0.2 X Track quality 99.4 % Test CRC FAAD3FF7 Copy CRC FAAD3FF7 Track not present in AccurateRip database Copy OK

Track 2

Filename C:\Jerry Goldsmith - Rambo; First Blood Part II (Intrada INT 7149) [FLAC]\CD 1\02. Main Title.wav

Peak level 99.1 % Extraction speed 1.0 X Track quality 100.0 % Test CRC F3BE87C3 Copy CRC F3BE87C3 Track not present in AccurateRip database Copy OK

Track 3

Filename C:\Jerry Goldsmith - Rambo; First Blood Part II (Intrada INT 7149) [FLAC]\CD 1\03. The Map.wav

Peak level 79.4 % Extraction speed 0.8 X Track quality 100.0 % Test CRC 066A47F3 Copy CRC 066A47F3 Track not present in AccurateRip database Copy OK

Track 4

Filename C:\Jerry Goldsmith - Rambo; First Blood Part II (Intrada INT 7149) [FLAC]\CD 1\04. Preparation.wav

Peak level 99.7 % Extraction speed 0.9 X Track quality 100.0 % Test CRC 6264B671 Copy CRC 6264B671 Track not present in AccurateRip database Copy OK

Track 5

Filename C:\Jerry Goldsmith - Rambo; First Blood Part II (Intrada INT 7149) [FLAC]\CD 1\05. The Jump.wav

Peak level 97.2 % Extraction speed 1.2 X Track quality 100.0 % Test CRC BBF35FD5 Copy CRC BBF35FD5 Track not present in AccurateRip database Copy OK

Track 6

Filename C:\Jerry Goldsmith - Rambo; First Blood Part II (Intrada INT 7149) [FLAC]\CD 1\06. The Snake.wav

Peak level 98.7 % Extraction speed 1.1 X Track quality 100.0 % Test CRC DB065EA0 Copy CRC DB065EA0 Track not present in AccurateRip database Copy OK

Track 7

Filename C:\Jerry Goldsmith - Rambo; First Blood Part II (Intrada INT 7149) [FLAC]\CD 1\07. The Pirates.wav

Peak level 67.9 % Extraction speed 1.1 X Track quality 100.0 % Test CRC 6C3F136A Copy CRC 6C3F136A Track not present in AccurateRip database Copy OK

Track 8

Filename C:\Jerry Goldsmith - Rambo; First Blood Part II (Intrada INT 7149) [FLAC]\CD 1\08. Stories , Percussion (Overlay).wav

Peak level 62.2 % Extraction speed 1.4 X Track quality 100.0 % Test CRC 774EE6ED Copy CRC 774EE6ED Track not present in AccurateRip database Copy OK

Track 9

Filename C:\Jerry Goldsmith - Rambo; First Blood Part II (Intrada INT 7149) [FLAC]\CD 1\09. The Camp.wav

Peak level 81.1 % Extraction speed 1.2 X Track quality 100.0 % Test CRC 7647EDE8 Copy CRC 7647EDE8 Track not present in AccurateRip database Copy OK

Track 10

Filename C:\Jerry Goldsmith - Rambo; First Blood Part II (Intrada INT 7149) [FLAC]\CD 1\10. Forced Entry.wav

Peak level 99.4 % Extraction speed 1.1 X Track quality 100.0 % Test CRC A95B2F5D Copy CRC A95B2F5D Track not present in AccurateRip database Copy OK

Track 11

Filename C:\Jerry Goldsmith - Rambo; First Blood Part II (Intrada INT 7149) [FLAC]\CD 1\11. The Cage.wav

Peak level 99.5 % Extraction speed 1.5 X Track quality 100.0 % Test CRC 54572DB9 Copy CRC 54572DB9 Track not present in AccurateRip database Copy OK

Track 12

Filename C:\Jerry Goldsmith - Rambo; First Blood Part II (Intrada INT 7149) [FLAC]\CD 1\12. River Crash.wav

Peak level 97.2 % Extraction speed 1.5 X Track quality 100.0 % Test CRC 17E549EE Copy CRC 17E549EE Track not present in AccurateRip database Copy OK

Track 13

Filename C:\Jerry Goldsmith - Rambo; First Blood Part II (Intrada INT 7149) [FLAC]\CD 1\13. The Gunboat.wav

Peak level 99.9 % Extraction speed 1.3 X Track quality 100.0 % Test CRC 67A140A4 Copy CRC 67A140A4 Track not present in AccurateRip database Copy OK

Track 14

Filename C:\Jerry Goldsmith - Rambo; First Blood Part II (Intrada INT 7149) [FLAC]\CD 1\14. Betrayed.wav

Peak level 99.5 % Extraction speed 1.5 X Track quality 99.9 % Test CRC 8B99AAFE Copy CRC 8B99AAFE Track not present in AccurateRip database Copy OK

Track 15

Filename C:\Jerry Goldsmith - Rambo; First Blood Part II (Intrada INT 7149) [FLAC]\CD 1\15. Bring Him Up.wav

Peak level 67.5 % Extraction speed 1.4 X Track quality 100.0 % Test CRC 6196570F Copy CRC 6196570F Track not present in AccurateRip database Copy OK

Track 16

Filename C:\Jerry Goldsmith - Rambo; First Blood Part II (Intrada INT 7149) [FLAC]\CD 1\16. The Eyes.wav

Peak level 50.4 % Extraction speed 1.2 X Track quality 100.0 % Test CRC FAEC302B Copy CRC FAEC302B Track not present in AccurateRip database Copy OK

Track 17

Filename C:\Jerry Goldsmith - Rambo; First Blood Part II (Intrada INT 7149) [FLAC]\CD 1\17. Escape From Torture.wav

Peak level 99.6 % Extraction speed 1.6 X Track quality 99.9 % Test CRC 7C2F2399 Copy CRC 7C2F2399 Track not present in AccurateRip database Copy OK

Track 18

Filename C:\Jerry Goldsmith - Rambo; First Blood Part II (Intrada INT 7149) [FLAC]\CD 1\18. Ambush.wav

Peak level 91.3 % Extraction speed 1.5 X Track quality 99.9 % Test CRC 9E39C0F9 Copy CRC 9E39C0F9 Track not present in AccurateRip database Copy OK

Track 19

Filename C:\Jerry Goldsmith - Rambo; First Blood Part II (Intrada INT 7149) [FLAC]\CD 1\19. Revenge.wav

Peak level 99.5 % Extraction speed 2.1 X Track quality 100.0 % Test CRC 6EB75E89 Copy CRC 6EB75E89 Track not present in AccurateRip database Copy OK

Track 20

Filename C:\Jerry Goldsmith - Rambo; First Blood Part II (Intrada INT 7149) [FLAC]\CD 1\20. Bowed Down.wav

Peak level 98.4 % Extraction speed 1.5 X Track quality 100.0 % Test CRC 44F330A3 Copy CRC 44F330A3 Track not present in AccurateRip database Copy OK

Track 21

Filename C:\Jerry Goldsmith - Rambo; First Blood Part II (Intrada INT 7149) [FLAC]\CD 1\21. Pilot Over.wav

Peak level 100.0 % Extraction speed 1.8 X Track quality 100.0 % Test CRC A19D952E Copy CRC A19D952E Track not present in AccurateRip database Copy OK

Track 22

Filename C:\Jerry Goldsmith - Rambo; First Blood Part II (Intrada INT 7149) [FLAC]\CD 1\22. Village Attack , Helicopter Fight.wav

Peak level 99.3 % Extraction speed 2.2 X Track quality 100.0 % Test CRC 66D1F3DC Copy CRC 66D1F3DC Track not present in AccurateRip database Copy OK

Track 23

Filename C:\Jerry Goldsmith - Rambo; First Blood Part II (Intrada INT 7149) [FLAC]\CD 1\23. Pre Lift Off , Home Flight.wav

Peak level 98.5 % Extraction speed 2.1 X Track quality 100.0 % Test CRC 972BF314 Copy CRC 972BF314 Track not present in AccurateRip database Copy OK

Track 24

Filename C:\Jerry Goldsmith - Rambo; First Blood Part II (Intrada INT 7149) [FLAC]\CD 1\24. Day By Day.wav

Peak level 59.8 % Extraction speed 1.6 X Track quality 99.9 % Test CRC 8E1A4A21 Copy CRC 8E1A4A21 Track not present in AccurateRip database Copy OK

Track 25

Filename C:\Jerry Goldsmith - Rambo; First Blood Part II (Intrada INT 7149) [FLAC]\CD 1\25. Peace In Our Life.wav

Peak level 86.3 % Extraction speed 1.8 X Track quality 99.9 % Test CRC B200D125 Copy CRC B200D125 Track not present in AccurateRip database Copy OK

None of the tracks are present in the AccurateRip database

No errors occurred

End of status report

---- CUETools DB Plugin V2.1.6

[CTDB TOCID: SH9N9MCWDhCpi6Mju_dAN4F6xUI-] foundSubmit result: SH9N9MCWDhCpi6Mju_dAN4F6xUI- has been confirmedTrack | CTDB Status 1 | (2/2) Accurately ripped 2 | (2/2) Accurately ripped 3 | (2/2) Accurately ripped 4 | (2/2) Accurately ripped 5 | (2/2) Accurately ripped 6 | (2/2) Accurately ripped 7 | (2/2) Accurately ripped 8 | (2/2) Accurately ripped 9 | (2/2) Accurately ripped 10 | (2/2) Accurately ripped 11 | (2/2) Accurately ripped 12 | (2/2) Accurately ripped 13 | (2/2) Accurately ripped 14 | (2/2) Accurately ripped 15 | (2/2) Accurately ripped 16 | (2/2) Accurately ripped 17 | (2/2) Accurately ripped 18 | (2/2) Accurately ripped 19 | (2/2) Accurately ripped 20 | (2/2) Accurately ripped 21 | (2/2) Accurately ripped 22 | (2/2) Accurately ripped 23 | (2/2) Accurately ripped 24 | (2/2) Accurately ripped 25 | (2/2) Accurately ripped

==== Log checksum ED84ACFE49DC7F9271DD531C508CE5C1977743F84C4AE3F9968F1F23A32F9449 ====
[/spoiler]
REM GENRE SoundtrackREM DATE 2016REM DISCID 500E7319REM COMMENT "ExactAudioCopy v1.1"PERFORMER "Jerry Goldsmith"TITLE "Rambo: First Blood Part II [Complete]"FILE "01 - Carolco Logo.wav" WAVE TRACK 01 AUDIO TITLE "Carolco Logo" PERFORMER "Jerry Goldsmith" ISRC USSLP1600103 INDEX 01 00:00:00FILE "02 - Main Title.wav" WAVE TRACK 02 AUDIO TITLE "Main Title" PERFORMER "Jerry Goldsmith" ISRC USSLP1600104 INDEX 01 00:00:00FILE "03 - The Map.wav" WAVE TRACK 03 AUDIO TITLE "The Map" PERFORMER "Jerry Goldsmith" ISRC USSLP1600105 INDEX 01 00:00:00FILE "04 - Preparation.wav" WAVE TRACK 04 AUDIO TITLE "Preparation" PERFORMER "Jerry Goldsmith" ISRC USSLP1600106 INDEX 01 00:00:00FILE "05 - The Jump.wav" WAVE TRACK 05 AUDIO TITLE "The Jump" PERFORMER "Jerry Goldsmith" ISRC USSLP1600107 INDEX 01 00:00:00FILE "06 - The Snake.wav" WAVE TRACK 06 AUDIO TITLE "The Snake" PERFORMER "Jerry Goldsmith" ISRC USSLP1600108 INDEX 01 00:00:00FILE "07 - The Pirates.wav" WAVE TRACK 07 AUDIO TITLE "The Pirates" PERFORMER "Jerry Goldsmith" ISRC USSLP1600108 INDEX 01 00:00:00FILE "08 - Stories - Percussion (Overlay).wav" WAVE TRACK 08 AUDIO TITLE "Stories / Percussion (Overlay)" PERFORMER "Jerry Goldsmith" ISRC USSLP1600110 INDEX 01 00:00:00FILE "09 - The Camp.wav" WAVE TRACK 09 AUDIO TITLE "The Camp" PERFORMER "Jerry Goldsmith" ISRC USSLP1600111 INDEX 01 00:00:00FILE "10 - Forced Entry.wav" WAVE TRACK 10 AUDIO TITLE "Forced Entry" PERFORMER "Jerry Goldsmith" ISRC USSLP1600111 INDEX 01 00:00:00FILE "11 - The Cage.wav" WAVE TRACK 11 AUDIO TITLE "The Cage" PERFORMER "Jerry Goldsmith" ISRC USSLP1600113 INDEX 01 00:00:00FILE "12 - River Crash.wav" WAVE TRACK 12 AUDIO TITLE "River Crash" PERFORMER "Jerry Goldsmith" ISRC USSLP1600114 INDEX 01 00:00:00FILE "13 - The Gunboat.wav" WAVE TRACK 13 AUDIO TITLE "The Gunboat" PERFORMER "Jerry Goldsmith" ISRC USSLP1600114 INDEX 01 00:00:00FILE "14 - Betrayed.wav" WAVE TRACK 14 AUDIO TITLE "Betrayed" PERFORMER "Jerry Goldsmith" ISRC USSLP1600116 INDEX 01 00:00:00FILE "15 - Bring Him Up.wav" WAVE TRACK 15 AUDIO TITLE "Bring Him Up" PERFORMER "Jerry Goldsmith" ISRC USSLP1600117 INDEX 01 00:00:00FILE "16 - The Eyes.wav" WAVE TRACK 16 AUDIO TITLE "The Eyes" PERFORMER "Jerry Goldsmith" ISRC USSLP1600118 INDEX 01 00:00:00FILE "17 - Escape from Torture.wav" WAVE TRACK 17 AUDIO TITLE "Escape from Torture" PERFORMER "Jerry Goldsmith" ISRC USSLP1600119 INDEX 01 00:00:00FILE "18 - Ambush.wav" WAVE TRACK 18 AUDIO TITLE "Ambush" PERFORMER "Jerry Goldsmith" ISRC USSLP1600119 INDEX 01 00:00:00FILE "19 - Revenge.wav" WAVE TRACK 19 AUDIO TITLE "Revenge" PERFORMER "Jerry Goldsmith" ISRC USSLP1600121 INDEX 01 00:00:00FILE "20 - Bowed Down.wav" WAVE TRACK 20 AUDIO TITLE "Bowed Down" PERFORMER "Jerry Goldsmith" ISRC USSLP1600122 INDEX 01 00:00:00FILE "21 - Pilot Over.wav" WAVE TRACK 21 AUDIO TITLE "Pilot Over" PERFORMER "Jerry Goldsmith" ISRC USSLP1600122 INDEX 01 00:00:00FILE "22 - Village Attack - Helicopter Fight.wav" WAVE TRACK 22 AUDIO TITLE "Village Attack / Helicopter Fight" PERFORMER "Jerry Goldsmith" ISRC USSLP1600124 INDEX 01 00:00:00FILE "23 - Pre Lift off - Home Flight.wav" WAVE TRACK 23 AUDIO TITLE "Pre Lift off / Home Flight" PERFORMER "Jerry Goldsmith" ISRC USSLP1600125 INDEX 01 00:00:00FILE "24 - Day by Day.wav" WAVE TRACK 24 AUDIO TITLE "Day by Day" PERFORMER "Jerry Goldsmith" ISRC USSLP1600126 INDEX 01 00:00:00FILE "25 - Peace in Our Life (performed by Frank Stallone).wav" WAVE TRACK 25 AUDIO TITLE "Peace in Our Life (performed by Frank Stallone)" PERFORMER "Jerry Goldsmith" ISRC USSLP1600127 INDEX 01 00:00:00
CD2 - Original Soundtrack – 35mm Three-Channel Mixes
01 - Carolco Logo (with Slate)
02 - Main Title
03 - Preparation
04 - The Jump
05 - The Snake
06 - The Pirates
07 - Stories / Percussion (Overlay)
08 - The Camp
09 - Forced Entry
10 - The Cage
11 - River Crash
12 - The Gunboat
13 - Betrayed
14 - Bring Him Up
15 - The Eyes
16 - Escape from Torture
17 - Ambush
18 - Revenge
19 - Bowed Down
20 - Pilot Over
21 - Village Attack / Helicopter Fight
22 - Pre Lift off
23 - Day by Day

The Extras
24 - Stories (Trumpet Stripe Only)
25 - Percussion No. 1
26 - Percussion No. 2
27 - Ambush (Early Take)
28 - Revenge (Early Mix)

1984 Trailers
29 - Rambo Promo No. 1 (Original)
30 - Rambo Promo No. 2 (Revised)

Carolco Demo Cassette
31 - The Map (Alternate)
32 - Helicopter Fight (Alternate)
33 - End Credits (Original)
Exact Audio Copy V1.1 from 23. June 2015

EAC extraction logfile from 16. August 2016, 4:12

Jerry Goldsmith / Rambo: First Blood Part II

Used drive : HL-DT-STBDDVDRW CH30N Adapter: 1 ID: 0

Read mode : SecureUtilize accurate stream : YesDefeat audio cache : YesMake use of C2 pointers : No

Read offset correction : 6Overread into Lead-In and Lead-Out : NoFill up missing offset samples with silence : YesDelete leading and trailing silent blocks : NoNull samples used in CRC calculations : YesUsed interface : Native Win32 interface for Win NT & 2000Gap handling : Appended to previous track

Used output format : User Defined EncoderSelected bitrate : 1024 kBit/sQuality : HighAdd ID3 tag : NoCommand line compressor : C:\Program Files (x86)\Exact Audio Copy\Flac\flac.exeAdditional command line options : -8 -V -T "artist=%artist%" -T "title=%title%" -T "album=%albumtitle%" -T "date=%year%" -T "tracknumber=%tracknr%" -T "genre=%genre%" %source%

TOC of the extracted CD

Track | Start | Length | Start sector | End sector --------------------------------------------------------- 1 | 0:00.00 | 0:34.06 | 0 | 2555 2 | 0:34.06 | 2:17.06 | 2556 | 12836 3 | 2:51.12 | 1:19.32 | 12837 | 18793 4 | 4:10.44 | 3:22.50 | 18794 | 33993 5 | 7:33.19 | 1:54.65 | 33994 | 42608 6 | 9:28.09 | 1:31.28 | 42609 | 49461 7 | 10:59.37 | 3:32.10 | 49462 | 65371 8 | 14:31.47 | 1:25.43 | 65372 | 71789 9 | 15:57.15 | 1:03.28 | 71790 | 76542 10 | 17:00.43 | 3:58.64 | 76543 | 94456 11 | 20:59.32 | 2:22.73 | 94457 | 105179 12 | 23:22.30 | 1:18.20 | 105180 | 111049 13 | 24:40.50 | 4:27.50 | 111050 | 131124 14 | 29:08.25 | 1:18.22 | 131125 | 136996 15 | 30:26.47 | 1:01.24 | 136997 | 141595 16 | 31:27.71 | 3:43.55 | 141596 | 158375 17 | 35:11.51 | 2:48.72 | 158376 | 171047 18 | 38:00.48 | 6:17.71 | 171048 | 199393 19 | 44:18.44 | 1:06.38 | 199394 | 204381 20 | 45:25.07 | 1:56.70 | 204382 | 213151 21 | 47:22.02 | 4:54.35 | 213152 | 235236 22 | 52:16.37 | 0:28.19 | 235237 | 237355 23 | 52:44.56 | 2:15.67 | 237356 | 247547 24 | 55:00.48 | 3:30.08 | 247548 | 263305 25 | 58:30.56 | 0:06.24 | 263306 | 263779 26 | 58:37.05 | 0:07.39 | 263780 | 264343 27 | 58:44.44 | 2:48.56 | 264344 | 276999 28 | 61:33.25 | 6:22.19 | 277000 | 305668 29 | 67:55.44 | 1:05.58 | 305669 | 310601 30 | 69:01.27 | 1:08.14 | 310602 | 315715 31 | 70:09.41 | 0:59.59 | 315716 | 320199 32 | 71:09.25 | 4:18.53 | 320200 | 339602 33 | 75:28.03 | 3:13.15 | 339603 | 354092

Track 1

Filename C:\Jerry Goldsmith - Rambo; First Blood Part II (Intrada INT 7149) [FLAC]\CD 2\01. Carolco Logo (With Slate).wav

Pre-gap length 0:00:02.00

Peak level 100.0 % Extraction speed 2.3 X Track quality 100.0 % Test CRC 759E8432 Copy CRC 759E8432 Track not present in AccurateRip database Copy OK

Track 2

Filename C:\Jerry Goldsmith - Rambo; First Blood Part II (Intrada INT 7149) [FLAC]\CD 2\02. Main Title.wav

Peak level 100.0 % Extraction speed 2.7 X Track quality 99.9 % Test CRC 2892440D Copy CRC 2892440D Track not present in AccurateRip database Copy OK

Track 3

Filename C:\Jerry Goldsmith - Rambo; First Blood Part II (Intrada INT 7149) [FLAC]\CD 2\03. Preparation.wav

Peak level 100.0 % Extraction speed 1.7 X Track quality 100.0 % Test CRC 7D22AF69 Copy CRC 7D22AF69 Track not present in AccurateRip database Copy OK

Track 4

Filename C:\Jerry Goldsmith - Rambo; First Blood Part II (Intrada INT 7149) [FLAC]\CD 2\04. The Jump.wav

Peak level 88.1 % Extraction speed 1.2 X Track quality 100.0 % Test CRC EBEC74F0 Copy CRC EBEC74F0 Track not present in AccurateRip database Copy OK

Track 5

Filename C:\Jerry Goldsmith - Rambo; First Blood Part II (Intrada INT 7149) [FLAC]\CD 2\05. The Snake.wav

Peak level 100.0 % Extraction speed 0.9 X Track quality 99.9 % Test CRC 25E6D9D4 Copy CRC 25E6D9D4 Track not present in AccurateRip database Copy OK

Track 6

Filename C:\Jerry Goldsmith - Rambo; First Blood Part II (Intrada INT 7149) [FLAC]\CD 2\06. The Pirates.wav

Peak level 54.7 % Extraction speed 1.1 X Track quality 100.0 % Test CRC 9357C3F3 Copy CRC 9357C3F3 Track not present in AccurateRip database Copy OK

Track 7

Filename C:\Jerry Goldsmith - Rambo; First Blood Part II (Intrada INT 7149) [FLAC]\CD 2\07. Stories , Percussion (Overlay).wav

Peak level 72.6 % Extraction speed 1.2 X Track quality 99.9 % Test CRC C2134A14 Copy CRC C2134A14 Track not present in AccurateRip database Copy OK

Track 8

Filename C:\Jerry Goldsmith - Rambo; First Blood Part II (Intrada INT 7149) [FLAC]\CD 2\08. The Camp.wav

Peak level 99.2 % Extraction speed 1.2 X Track quality 100.0 % Test CRC 4731E211 Copy CRC 4731E211 Track not present in AccurateRip database Copy OK

Track 9

Filename C:\Jerry Goldsmith - Rambo; First Blood Part II (Intrada INT 7149) [FLAC]\CD 2\09. Forced Entry.wav

Peak level 100.0 % Extraction speed 0.7 X Track quality 99.8 % Test CRC 4A279A89 Copy CRC 4A279A89 Track not present in AccurateRip database Copy OK

Track 10

Filename C:\Jerry Goldsmith - Rambo; First Blood Part II (Intrada INT 7149) [FLAC]\CD 2\10. The Cage.wav

Peak level 93.2 % Extraction speed 1.6 X Track quality 100.0 % Test CRC 2B887F82 Copy CRC 2B887F82 Track not present in AccurateRip database Copy OK

Track 11

Filename C:\Jerry Goldsmith - Rambo; First Blood Part II (Intrada INT 7149) [FLAC]\CD 2\11. River Crash.wav

Peak level 100.0 % Extraction speed 1.5 X Track quality 100.0 % Test CRC 1369F70E Copy CRC 1369F70E Track not present in AccurateRip database Copy OK

Track 12

Filename C:\Jerry Goldsmith - Rambo; First Blood Part II (Intrada INT 7149) [FLAC]\CD 2\12. The Gunboat.wav

Peak level 100.0 % Extraction speed 1.3 X Track quality 100.0 % Test CRC 4F4D1600 Copy CRC 4F4D1600 Track not present in AccurateRip database Copy OK

Track 13

Filename C:\Jerry Goldsmith - Rambo; First Blood Part II (Intrada INT 7149) [FLAC]\CD 2\13. Betrayed.wav

Peak level 92.2 % Extraction speed 1.7 X Track quality 100.0 % Test CRC D96A3901 Copy CRC D96A3901 Track not present in AccurateRip database Copy OK

Track 14

Filename C:\Jerry Goldsmith - Rambo; First Blood Part II (Intrada INT 7149) [FLAC]\CD 2\14. Bring Him Up.wav

Peak level 71.6 % Extraction speed 1.4 X Track quality 100.0 % Test CRC 169BC5E0 Copy CRC 169BC5E0 Track not present in AccurateRip database Copy OK

Track 15

Filename C:\Jerry Goldsmith - Rambo; First Blood Part II (Intrada INT 7149) [FLAC]\CD 2\15. The Eyes.wav

Peak level 41.1 % Extraction speed 1.3 X Track quality 100.0 % Test CRC 48ECEB4E Copy CRC 48ECEB4E Track not present in AccurateRip database Copy OK

Track 16

Filename C:\Jerry Goldsmith - Rambo; First Blood Part II (Intrada INT 7149) [FLAC]\CD 2\16. Escape From Torture.wav

Peak level 86.9 % Extraction speed 1.5 X Track quality 99.9 % Test CRC 0233CD26 Copy CRC 0233CD26 Track not present in AccurateRip database Copy OK

Track 17

Filename C:\Jerry Goldsmith - Rambo; First Blood Part II (Intrada INT 7149) [FLAC]\CD 2\17. Ambush.wav

Peak level 97.5 % Extraction speed 1.5 X Track quality 99.9 % Test CRC FEEF3588 Copy CRC FEEF3588 Track not present in AccurateRip database Copy OK

Track 18

Filename C:\Jerry Goldsmith - Rambo; First Blood Part II (Intrada INT 7149) [FLAC]\CD 2\18. Revenge.wav

Peak level 95.9 % Extraction speed 2.1 X Track quality 100.0 % Test CRC 67548E66 Copy CRC 67548E66 Track not present in AccurateRip database Copy OK

Track 19

Filename C:\Jerry Goldsmith - Rambo; First Blood Part II (Intrada INT 7149) [FLAC]\CD 2\19. Bowed Down.wav

Peak level 84.0 % Extraction speed 1.5 X Track quality 100.0 % Test CRC 08913B75 Copy CRC 08913B75 Track not present in AccurateRip database Copy OK

Track 20

Filename C:\Jerry Goldsmith - Rambo; First Blood Part II (Intrada INT 7149) [FLAC]\CD 2\20. Pilot Over.wav

Peak level 100.0 % Extraction speed 1.8 X Track quality 100.0 % Test CRC 46816BBF Copy CRC 46816BBF Track not present in AccurateRip database Copy OK

Track 21

Filename C:\Jerry Goldsmith - Rambo; First Blood Part II (Intrada INT 7149) [FLAC]\CD 2\21. Village Attack , Helicopter Fight.wav

Peak level 98.7 % Extraction speed 1.9 X Track quality 99.9 % Test CRC 8E8ED7A8 Copy CRC 8E8ED7A8 Track not present in AccurateRip database Copy OK

Track 22

Filename C:\Jerry Goldsmith - Rambo; First Blood Part II (Intrada INT 7149) [FLAC]\CD 2\22. Pre Lift Off.wav

Peak level 98.7 % Extraction speed 1.0 X Track quality 100.0 % Test CRC B5362D9C Copy CRC B5362D9C Track not present in AccurateRip database Copy OK

Track 23

Filename C:\Jerry Goldsmith - Rambo; First Blood Part II (Intrada INT 7149) [FLAC]\CD 2\23. Day By Day.wav

Peak level 64.8 % Extraction speed 1.9 X Track quality 100.0 % Test CRC 52D5E9C6 Copy CRC 52D5E9C6 Track not present in AccurateRip database Copy OK

Track 24

Filename C:\Jerry Goldsmith - Rambo; First Blood Part II (Intrada INT 7149) [FLAC]\CD 2\24. Stories (Trumpet Stripe Only).wav

Peak level 50.0 % Extraction speed 2.1 X Track quality 100.0 % Test CRC 0DDB5DA7 Copy CRC 0DDB5DA7 Track not present in AccurateRip database Copy OK

Track 25

Filename C:\Jerry Goldsmith - Rambo; First Blood Part II (Intrada INT 7149) [FLAC]\CD 2\25. Percussion No. 1.wav

Peak level 96.1 % Extraction speed 0.1 X Track quality 98.2 % Test CRC 75D72FBC Copy CRC 75D72FBC Track not present in AccurateRip database Copy OK

Track 26

Filename C:\Jerry Goldsmith - Rambo; First Blood Part II (Intrada INT 7149) [FLAC]\CD 2\26. Percussion No. 2.wav

Peak level 98.1 % Extraction speed 0.4 X Track quality 100.0 % Test CRC F96A2521 Copy CRC F96A2521 Track not present in AccurateRip database Copy OK

Track 27

Filename C:\Jerry Goldsmith - Rambo; First Blood Part II (Intrada INT 7149) [FLAC]\CD 2\27. Ambush (Early Take).wav

Peak level 94.1 % Extraction speed 2.1 X Track quality 100.0 % Test CRC 61FAC54F Copy CRC 61FAC54F Track not present in AccurateRip database Copy OK

Track 28

Filename C:\Jerry Goldsmith - Rambo; First Blood Part II (Intrada INT 7149) [FLAC]\CD 2\28. Revenge (Early Mix).wav

Peak level 98.7 % Extraction speed 2.4 X Track quality 100.0 % Test CRC EFE3901F Copy CRC EFE3901F Track not present in AccurateRip database Copy OK

Track 29

Filename C:\Jerry Goldsmith - Rambo; First Blood Part II (Intrada INT 7149) [FLAC]\CD 2\29. Rambo Promo No. 1 (Original).wav

Peak level 97.4 % Extraction speed 1.7 X Track quality 100.0 % Test CRC B919994E Copy CRC B919994E Track not present in AccurateRip database Copy OK

Track 30

Filename C:\Jerry Goldsmith - Rambo; First Blood Part II (Intrada INT 7149) [FLAC]\CD 2\30. Rambo Promo No. 2 (Revised).wav

Peak level 99.7 % Extraction speed 1.7 X Track quality 100.0 % Test CRC AC97C1B4 Copy CRC AC97C1B4 Track not present in AccurateRip database Copy OK

Track 31

Filename C:\Jerry Goldsmith - Rambo; First Blood Part II (Intrada INT 7149) [FLAC]\CD 2\31. The Map (Alternate).wav

Peak level 60.2 % Extraction speed 1.7 X Track quality 100.0 % Test CRC 472F0F21 Copy CRC 472F0F21 Track not present in AccurateRip database Copy OK

Track 32

Filename C:\Jerry Goldsmith - Rambo; First Blood Part II (Intrada INT 7149) [FLAC]\CD 2\32. Helicopter Fight (Alternate).wav

Peak level 99.3 % Extraction speed 2.5 X Track quality 100.0 % Test CRC DFA9487A Copy CRC DFA9487A Track not present in AccurateRip database Copy OK

Track 33

Filename C:\Jerry Goldsmith - Rambo; First Blood Part II (Intrada INT 7149) [FLAC]\CD 2\33. End Credits (Original).wav

Peak level 99.9 % Extraction speed 2.0 X Track quality 99.9 % Test CRC 362E3306 Copy CRC 362E3306 Track not present in AccurateRip database Copy OK

None of the tracks are present in the AccurateRip database

No errors occurred

End of status report

---- CUETools DB Plugin V2.1.6

[CTDB TOCID: B3Djt13U5b6E96VWYAzobbdgpug-] database access error: The remote name could not be resolved: 'db.cuetools.net'

==== Log checksum B96DF5D3EB2FADFBBA31BC06D000059CAA768A2216551F64D436E9EA855F5B0A ====
REM GENRE SoundtrackREM DATE 2016REM DISCID C3127121REM COMMENT "ExactAudioCopy v1.1"PERFORMER "Jerry Goldsmith"TITLE "Rambo: First Blood Part II [Complete]"FILE "01 - Carolco Logo (with Slate).wav" WAVE TRACK 01 AUDIO TITLE "Carolco Logo (with Slate)" PERFORMER "Jerry Goldsmith" ISRC USSLF1600128 INDEX 01 00:00:00FILE "02 - Main Title.wav" WAVE TRACK 02 AUDIO TITLE "Main Title" PERFORMER "Jerry Goldsmith" ISRC USSLF1600128 INDEX 01 00:00:00FILE "03 - Preparation.wav" WAVE TRACK 03 AUDIO TITLE "Preparation" PERFORMER "Jerry Goldsmith" ISRC USSLF1600130 INDEX 01 00:00:00FILE "04 - The Jump.wav" WAVE TRACK 04 AUDIO TITLE "The Jump" PERFORMER "Jerry Goldsmith" ISRC USSLF1600131 INDEX 01 00:00:00FILE "05 - The Snake.wav" WAVE TRACK 05 AUDIO TITLE "The Snake" PERFORMER "Jerry Goldsmith" ISRC USSLF1600132 INDEX 01 00:00:00FILE "06 - The Pirates.wav" WAVE TRACK 06 AUDIO TITLE "The Pirates" PERFORMER "Jerry Goldsmith" ISRC USSLF1600132 INDEX 01 00:00:00FILE "07 - Stories - Percussion (Overlay).wav" WAVE TRACK 07 AUDIO TITLE "Stories / Percussion (Overlay)" PERFORMER "Jerry Goldsmith" ISRC USSLF1600134 INDEX 01 00:00:00FILE "08 - The Camp.wav" WAVE TRACK 08 AUDIO TITLE "The Camp" PERFORMER "Jerry Goldsmith" ISRC USSLF1600134 INDEX 01 00:00:00FILE "09 - Forced Entry.wav" WAVE TRACK 09 AUDIO TITLE "Forced Entry" PERFORMER "Jerry Goldsmith" ISRC USSLF1600136 INDEX 01 00:00:00FILE "10 - The Cage.wav" WAVE TRACK 10 AUDIO TITLE "The Cage" PERFORMER "Jerry Goldsmith" ISRC USSLF1600137 INDEX 01 00:00:00FILE "11 - River Crash.wav" WAVE TRACK 11 AUDIO TITLE "River Crash" PERFORMER "Jerry Goldsmith" ISRC USSLF1600138 INDEX 01 00:00:00FILE "12 - The Gunboat.wav" WAVE TRACK 12 AUDIO TITLE "The Gunboat" PERFORMER "Jerry Goldsmith" ISRC USSLF1600139 INDEX 01 00:00:00FILE "13 - Betrayed.wav" WAVE TRACK 13 AUDIO TITLE "Betrayed" PERFORMER "Jerry Goldsmith" ISRC USSLF1600140 INDEX 01 00:00:00FILE "14 - Bring Him Up.wav" WAVE TRACK 14 AUDIO TITLE "Bring Him Up" PERFORMER "Jerry Goldsmith" ISRC USSLF1600141 INDEX 01 00:00:00FILE "15 - The Eyes.wav" WAVE TRACK 15 AUDIO TITLE "The Eyes" PERFORMER "Jerry Goldsmith" ISRC USSLF1600142 INDEX 01 00:00:00FILE "16 - Escape from Torture.wav" WAVE TRACK 16 AUDIO TITLE "Escape from Torture" PERFORMER "Jerry Goldsmith" ISRC USSLF1600143 INDEX 01 00:00:00FILE "17 - Ambush.wav" WAVE TRACK 17 AUDIO TITLE "Ambush" PERFORMER "Jerry Goldsmith" ISRC USSLF1600144 INDEX 01 00:00:00FILE "18 - Revenge.wav" WAVE TRACK 18 AUDIO TITLE "Revenge" PERFORMER "Jerry Goldsmith" ISRC USSLF1600145 INDEX 01 00:00:00FILE "19 - Bowed Down.wav" WAVE TRACK 19 AUDIO TITLE "Bowed Down" PERFORMER "Jerry Goldsmith" ISRC USSLF1600146 INDEX 01 00:00:00FILE "20 - Pilot Over.wav" WAVE TRACK 20 AUDIO TITLE "Pilot Over" PERFORMER "Jerry Goldsmith" ISRC USSLF1600147 INDEX 01 00:00:00FILE "21 - Village Attack - Helicopter Fight.wav" WAVE TRACK 21 AUDIO TITLE "Village Attack / Helicopter Fight" PERFORMER "Jerry Goldsmith" ISRC USSLF1600148 INDEX 01 00:00:00FILE "22 - Pre Lift off.wav" WAVE TRACK 22 AUDIO TITLE "Pre Lift off" PERFORMER "Jerry Goldsmith" ISRC USSLF1600149 INDEX 01 00:00:00FILE "23 - Day by Day.wav" WAVE TRACK 23 AUDIO TITLE "Day by Day" PERFORMER "Jerry Goldsmith" ISRC USSLF1600150 INDEX 01 00:00:00FILE "24 - Stories (Trumpet Stripe Only).wav" WAVE TRACK 24 AUDIO TITLE "Stories (Trumpet Stripe Only)" PERFORMER "Jerry Goldsmith" ISRC USSLF1600151 INDEX 01 00:00:00FILE "25 - Percussion No. 1.wav" WAVE TRACK 25 AUDIO TITLE "Percussion No. 1" PERFORMER "Jerry Goldsmith" ISRC USSLF1600152 INDEX 01 00:00:00FILE "26 - Percussion No. 2.wav" WAVE TRACK 26 AUDIO TITLE "Percussion No. 2" PERFORMER "Jerry Goldsmith" ISRC USSLF1600153 INDEX 01 00:00:00FILE "27 - Ambush (Early Take).wav" WAVE TRACK 27 AUDIO TITLE "Ambush (Early Take)" PERFORMER "Jerry Goldsmith" ISRC USSLF1600154 INDEX 01 00:00:00FILE "28 - Revenge (Early Mix).wav" WAVE TRACK 28 AUDIO TITLE "Revenge (Early Mix)" PERFORMER "Jerry Goldsmith" ISRC USSLF1600155 INDEX 01 00:00:00FILE "29 - Rambo Promo No. 1 (Original).wav" WAVE TRACK 29 AUDIO TITLE "Rambo Promo No. 1 (Original)" PERFORMER "Jerry Goldsmith" ISRC USSLF1600156 INDEX 01 00:00:00FILE "30 - Rambo Promo No. 2 (Revised).wav" WAVE TRACK 30 AUDIO TITLE "Rambo Promo No. 2 (Revised)" PERFORMER "Jerry Goldsmith" ISRC USSLF1600156 INDEX 01 00:00:00FILE "31 - The Map (Alternate).wav" WAVE TRACK 31 AUDIO TITLE "The Map (Alternate)" PERFORMER "Jerry Goldsmith" ISRC USSLF1600157 INDEX 01 00:00:00FILE "32 - Helicopter Fight (Alternate).wav" WAVE TRACK 32 AUDIO TITLE "Helicopter Fight (Alternate)" PERFORMER "Jerry Goldsmith" ISRC USSLF1600159 INDEX 01 00:00:00FILE "33 - End Credits (Original).wav" WAVE TRACK 33 AUDIO TITLE "End Credits (Original)" PERFORMER "Jerry Goldsmith" ISRC USSLF1600160 INDEX 01 00:00:00
<div class="q-wrap">
<div class="q-head"><b>Цитата:</b></div>
<div class="q">Score: 100 (out of 100)</div>
</div>
</div>
</div>
[spoiler="2005 - Рэмбо 3 / Rambo III [Complete, Intrada MAF 7094] by Jerry Goldsmith (01:16:42)"]
01 - Another Time
02 - Preparations
03 - The Money
04 - I'm Used to it
05 - Peshawar
06 - Afghanistan
07 - Questions
08 - Then I'll Die
09 - The Game
10 - Flaming Village
11 - The Aftermath
12 - Night Entry
13 - Under and Over
14 - Night Flight
15 - First Aid
16 - The Long Climb
17 - Going Down
18 - The Cave
19 - The Boot
20 - You Did It John
21 - The Showdown
22 - Final Battle
23 - I'll Stay
<div class="sp-wrap">
<div class="sp-head folded">Лог создания рипа</div>
<div class="sp-body">

Exact Audio Copy V1.0 beta 3 from 29. August 2011

EAC extraction logfile from 20. March 2012, 19:46

Jerry Goldsmith / Rambo III

Used drive : PIONEER BD-RW BDR-207D Adapter: 6 ID: 0

Read mode : SecureUtilize accurate stream : YesDefeat audio cache : YesMake use of C2 pointers : No

Read offset correction : 667Overread into Lead-In and Lead-Out : NoFill up missing offset samples with silence : YesDelete leading and trailing silent blocks : NoNull samples used in CRC calculations : YesUsed interface : Native Win32 interface for Win NT & 2000Gap handling : Appended to previous track

Used output format : User Defined EncoderSelected bitrate : 1024 kBit/sQuality : HighAdd ID3 tag : NoCommand line compressor : C:\Program Files (x86)\Exact Audio Copy\FLAC\FLAC.EXEAdditional command line options : -8 -V -T "ARTIST=%artist%" -T "TITLE=%title%" -T "ALBUM=%albumtitle%" -T "DATE=%year%" -T "TRACKNUMBER=%tracknr%" -T "GENRE=%genre%" -T "PERFORMER=%albuminterpret%" -T "COMPOSER=%composer%" %haslyrics%--tag-from-file=LYRICS="%lyricsfile%"%haslyrics% -T "ALBUMARTIST=%albumartist%" -T "DISCNUMBER=%cdnumber%" -T "TOTALDISCS=%totalcds%" -T "TOTALTRACKS=%numtracks%" -T "COMMENT=%comment%" %source% -o %dest%

TOC of the extracted CD

Track | Start | Length | Start sector | End sector --------------------------------------------------------- 1 | 0:00.00 | 3:59.07 | 0 | 17931 2 | 3:59.07 | 6:23.17 | 17932 | 46673 3 | 10:22.24 | 0:53.15 | 46674 | 50663 4 | 11:15.39 | 1:01.44 | 50664 | 55282 5 | 12:17.08 | 1:13.43 | 55283 | 60800 6 | 13:30.51 | 2:39.48 | 60801 | 72773 7 | 16:10.24 | 3:39.15 | 72774 | 89213 8 | 19:49.39 | 3:36.11 | 89214 | 105424 9 | 23:25.50 | 2:27.06 | 105425 | 116455 10 | 25:52.56 | 4:09.19 | 116456 | 135149 11 | 30:02.00 | 2:46.03 | 135150 | 147602 12 | 32:48.03 | 3:59.43 | 147603 | 165570 13 | 36:47.46 | 2:56.37 | 165571 | 178807 14 | 39:44.08 | 6:51.09 | 178808 | 209641 15 | 46:35.17 | 2:48.72 | 209642 | 222313 16 | 49:24.14 | 3:26.55 | 222314 | 237818 17 | 52:50.69 | 1:53.50 | 237819 | 246343 18 | 54:44.44 | 3:32.52 | 246344 | 262295 19 | 58:17.21 | 1:54.31 | 262296 | 270876 20 | 60:11.52 | 1:09.44 | 270877 | 276095 21 | 61:21.21 | 1:27.62 | 276096 | 282682 22 | 62:49.08 | 4:52.19 | 282683 | 304601 23 | 67:41.27 | 9:01.23 | 304602 | 345199

Track 1

Filename C:\Users\Phenom\Desktop\Rambo III (1989, Goldsmith, Intrada)\01. Another Time.wav

Pre-gap length 0:00:02.00

Peak level 44.0 % Extraction speed 4.7 X Track quality 100.0 % Test CRC B2D740B5 Copy CRC B2D740B5 Cannot be verified as accurate (confidence 2) [F45EE59F], AccurateRip returned [09AA0F10] (AR v2) Copy OK

Track 2

Filename C:\Users\Phenom\Desktop\Rambo III (1989, Goldsmith, Intrada)\02. Preparations.wav

Peak level 100.0 % Extraction speed 5.5 X Track quality 100.0 % Test CRC 44854E31 Copy CRC 44854E31 Cannot be verified as accurate (confidence 2) [A8BDF95D], AccurateRip returned [00EA5B0A] (AR v2) Copy OK

Track 3

Filename C:\Users\Phenom\Desktop\Rambo III (1989, Goldsmith, Intrada)\03. The Money.wav

Peak level 30.1 % Extraction speed 3.7 X Track quality 100.0 % Test CRC 8ACC146A Copy CRC 8ACC146A Cannot be verified as accurate (confidence 2) [9498EA28], AccurateRip returned [72A8EF72] (AR v2) Copy OK

Track 4

Filename C:\Users\Phenom\Desktop\Rambo III (1989, Goldsmith, Intrada)\04. I'm Used To It.wav

Peak level 38.0 % Extraction speed 3.9 X Track quality 100.0 % Test CRC 73FC7A70 Copy CRC 73FC7A70 Cannot be verified as accurate (confidence 2) [7F57585B], AccurateRip returned [D8B3F69F] (AR v2) Copy OK

Track 5

Filename C:\Users\Phenom\Desktop\Rambo III (1989, Goldsmith, Intrada)\05. Peshawar.wav

Peak level 92.3 % Extraction speed 4.3 X Track quality 100.0 % Test CRC 70D219CE Copy CRC 70D219CE Cannot be verified as accurate (confidence 2) [FABC36E0], AccurateRip returned [DD586A01] (AR v2) Copy OK

Track 6

Filename C:\Users\Phenom\Desktop\Rambo III (1989, Goldsmith, Intrada)\06. Afghanistan.wav

Peak level 50.7 % Extraction speed 5.5 X Track quality 100.0 % Test CRC D3AF7482 Copy CRC D3AF7482 Cannot be verified as accurate (confidence 2) [7BDB7382], AccurateRip returned [9E36BB90] (AR v2) Copy OK

Track 7

Filename C:\Users\Phenom\Desktop\Rambo III (1989, Goldsmith, Intrada)\07. Questions.wav

Peak level 85.2 % Extraction speed 6.0 X Track quality 100.0 % Test CRC 4B6A7C05 Copy CRC 4B6A7C05 Cannot be verified as accurate (confidence 2) [842AA05F], AccurateRip returned [DC3069E4] (AR v2) Copy OK

Track 8

Filename C:\Users\Phenom\Desktop\Rambo III (1989, Goldsmith, Intrada)\08. Then I'll Die.wav

Peak level 57.1 % Extraction speed 5.4 X Track quality 99.9 % Test CRC 6903E676 Copy CRC 6903E676 Cannot be verified as accurate (confidence 2) [DE22B526], AccurateRip returned [89B1EF15] (AR v2) Copy OK

Track 9

Filename C:\Users\Phenom\Desktop\Rambo III (1989, Goldsmith, Intrada)\09. The Game.wav

Peak level 100.0 % Extraction speed 5.0 X Track quality 99.9 % Test CRC 2A63BFC2 Copy CRC 2A63BFC2 Cannot be verified as accurate (confidence 2) [EB827033], AccurateRip returned [72E5C46C] (AR v2) Copy OK

Track 10

Filename C:\Users\Phenom\Desktop\Rambo III (1989, Goldsmith, Intrada)\10. Flaming Village.wav

Peak level 100.0 % Extraction speed 6.7 X Track quality 100.0 % Test CRC 03A53997 Copy CRC 03A53997 Cannot be verified as accurate (confidence 2) [5767DB84], AccurateRip returned [84F84712] (AR v2) Copy OK

Track 11

Filename C:\Users\Phenom\Desktop\Rambo III (1989, Goldsmith, Intrada)\11. The Aftermath.wav

Peak level 52.1 % Extraction speed 6.5 X Track quality 100.0 % Test CRC B2C533EC Copy CRC B2C533EC Cannot be verified as accurate (confidence 2) [7AB24161], AccurateRip returned [19BAD21B] (AR v2) Copy OK

Track 12

Filename C:\Users\Phenom\Desktop\Rambo III (1989, Goldsmith, Intrada)\12. Night Entry.wav

Peak level 86.3 % Extraction speed 7.1 X Track quality 100.0 % Test CRC 55968214 Copy CRC 55968214 Cannot be verified as accurate (confidence 2) [1B3EC994], AccurateRip returned [15AD39F2] (AR v2) Copy OK

Track 13

Filename C:\Users\Phenom\Desktop\Rambo III (1989, Goldsmith, Intrada)\13. Under And Over.wav

Peak level 65.5 % Extraction speed 6.8 X Track quality 100.0 % Test CRC 6A7087F4 Copy CRC 6A7087F4 Cannot be verified as accurate (confidence 2) [40160141], AccurateRip returned [50BA5149] (AR v2) Copy OK

Track 14

Filename C:\Users\Phenom\Desktop\Rambo III (1989, Goldsmith, Intrada)\14. Night Flight.wav

Peak level 100.0 % Extraction speed 7.9 X Track quality 100.0 % Test CRC 9638EA99 Copy CRC 9638EA99 Cannot be verified as accurate (confidence 2) [6C0EC0CD], AccurateRip returned [82F26726] (AR v2) Copy OK

Track 15

Filename C:\Users\Phenom\Desktop\Rambo III (1989, Goldsmith, Intrada)\15. First Aid.wav

Peak level 84.8 % Extraction speed 6.1 X Track quality 99.9 % Test CRC BE275632 Copy CRC BE275632 Cannot be verified as accurate (confidence 2) [A791584A], AccurateRip returned [E5F9A785] (AR v2) Copy OK

Track 16

Filename C:\Users\Phenom\Desktop\Rambo III (1989, Goldsmith, Intrada)\16. The Long Climb.wav

Peak level 99.5 % Extraction speed 7.5 X Track quality 100.0 % Test CRC F974F23F Copy CRC F974F23F Cannot be verified as accurate (confidence 2) [83860270], AccurateRip returned [69EA5741] (AR v2) Copy OK

Track 17

Filename C:\Users\Phenom\Desktop\Rambo III (1989, Goldsmith, Intrada)\17. Going Down.wav

Peak level 99.8 % Extraction speed 6.8 X Track quality 100.0 % Test CRC FFF0D50A Copy CRC FFF0D50A Cannot be verified as accurate (confidence 2) [13C19663], AccurateRip returned [5B6F48A8] (AR v2) Copy OK

Track 18

Filename C:\Users\Phenom\Desktop\Rambo III (1989, Goldsmith, Intrada)\18. The Cave.wav

Peak level 100.0 % Extraction speed 7.9 X Track quality 100.0 % Test CRC 8EF3AADE Copy CRC 8EF3AADE Cannot be verified as accurate (confidence 2) [365BB7F2], AccurateRip returned [F0BF5D81] (AR v2) Copy OK

Track 19

Filename C:\Users\Phenom\Desktop\Rambo III (1989, Goldsmith, Intrada)\19. The Boot.wav

Peak level 100.0 % Extraction speed 6.9 X Track quality 100.0 % Test CRC F289F294 Copy CRC F289F294 Cannot be verified as accurate (confidence 2) [F12AD973], AccurateRip returned [2ACF296E] (AR v2) Copy OK

Track 20

Filename C:\Users\Phenom\Desktop\Rambo III (1989, Goldsmith, Intrada)\20. You Did It John.wav

Peak level 100.0 % Extraction speed 5.9 X Track quality 100.0 % Test CRC 22CFE440 Copy CRC 22CFE440 Cannot be verified as accurate (confidence 2) [574ADD09], AccurateRip returned [86E1EB0A] (AR v2) Copy OK

Track 21

Filename C:\Users\Phenom\Desktop\Rambo III (1989, Goldsmith, Intrada)\21. The Showdown.wav

Peak level 100.0 % Extraction speed 6.5 X Track quality 100.0 % Test CRC 79CB814A Copy CRC 79CB814A Cannot be verified as accurate (confidence 2) [F2152EED], AccurateRip returned [D31106EF] (AR v2) Copy OK

Track 22

Filename C:\Users\Phenom\Desktop\Rambo III (1989, Goldsmith, Intrada)\22. Final Battle.wav

Peak level 100.0 % Extraction speed 8.7 X Track quality 100.0 % Test CRC C36B84F0 Copy CRC C36B84F0 Cannot be verified as accurate (confidence 2) [6B57E78A], AccurateRip returned [FA27DB64] (AR v2) Copy OK

Track 23

Filename C:\Users\Phenom\Desktop\Rambo III (1989, Goldsmith, Intrada)\23. I'll Stay.wav

Peak level 100.0 % Extraction speed 9.4 X Track quality 100.0 % Test CRC 44EAC7B7 Copy CRC 44EAC7B7 Cannot be verified as accurate (confidence 2) [CBDC067B], AccurateRip returned [92F60B83] (AR v2) Copy OK

No tracks could be verified as accurateYou may have a different pressing from the one(s) in the database

No errors occurred

End of status report

==== Log checksum BC07B18F2A50E86A80D8F2AF90E89F7A65D0B1B209BAE2E635B6FBD69FC017DD ====
[/spoiler]
REM GENRE "Film Soundtrack"REM DATE 2005REM DISCID 6811FA17REM COMMENT "ExactAudioCopy v1.0b3"PERFORMER "Jerry Goldsmith"TITLE "Rambo III [Complete]"FILE "01 - Another Time.wav" WAVE TRACK 01 AUDIO TITLE "Another Time" PERFORMER "Jerry Goldsmith" INDEX 01 00:00:00FILE "02 - Preparations.wav" WAVE TRACK 02 AUDIO TITLE "Preparations" PERFORMER "Jerry Goldsmith" INDEX 01 00:00:00FILE "03 - The Money.wav" WAVE TRACK 03 AUDIO TITLE "The Money" PERFORMER "Jerry Goldsmith" INDEX 01 00:00:00FILE "04 - I'm Used to it.wav" WAVE TRACK 04 AUDIO TITLE "I'm Used to it" PERFORMER "Jerry Goldsmith" INDEX 01 00:00:00FILE "05 - Peshawar.wav" WAVE TRACK 05 AUDIO TITLE "Peshawar" PERFORMER "Jerry Goldsmith" INDEX 01 00:00:00FILE "06 - Afghanistan.wav" WAVE TRACK 06 AUDIO TITLE "Afghanistan" PERFORMER "Jerry Goldsmith" INDEX 01 00:00:00FILE "07 - Questions.wav" WAVE TRACK 07 AUDIO TITLE "Questions" PERFORMER "Jerry Goldsmith" INDEX 01 00:00:00FILE "08 - Then I'll Die.wav" WAVE TRACK 08 AUDIO TITLE "Then I'll Die" PERFORMER "Jerry Goldsmith" INDEX 01 00:00:00FILE "09 - The Game.wav" WAVE TRACK 09 AUDIO TITLE "The Game" PERFORMER "Jerry Goldsmith" INDEX 01 00:00:00FILE "10 - Flaming Village.wav" WAVE TRACK 10 AUDIO TITLE "Flaming Village" PERFORMER "Jerry Goldsmith" INDEX 01 00:00:00FILE "11 - The Aftermath.wav" WAVE TRACK 11 AUDIO TITLE "The Aftermath" PERFORMER "Jerry Goldsmith" INDEX 01 00:00:00FILE "12 - Night Entry.wav" WAVE TRACK 12 AUDIO TITLE "Night Entry" PERFORMER "Jerry Goldsmith" INDEX 01 00:00:00FILE "13 - Under and Over.wav" WAVE TRACK 13 AUDIO TITLE "Under and Over" PERFORMER "Jerry Goldsmith" FLAGS DCP INDEX 01 00:00:00FILE "14 - Night Flight.wav" WAVE TRACK 14 AUDIO TITLE "Night Flight" PERFORMER "Jerry Goldsmith" INDEX 01 00:00:00FILE "15 - First Aid.wav" WAVE TRACK 15 AUDIO TITLE "First Aid" PERFORMER "Jerry Goldsmith" INDEX 01 00:00:00FILE "16 - The Long Climb.wav" WAVE TRACK 16 AUDIO TITLE "The Long Climb" PERFORMER "Jerry Goldsmith" INDEX 01 00:00:00FILE "17 - Going Down.wav" WAVE TRACK 17 AUDIO TITLE "Going Down" PERFORMER "Jerry Goldsmith" INDEX 01 00:00:00FILE "18 - The Cave.wav" WAVE TRACK 18 AUDIO TITLE "The Cave" PERFORMER "Jerry Goldsmith" INDEX 01 00:00:00FILE "19 - The Boot.wav" WAVE TRACK 19 AUDIO TITLE "The Boot" PERFORMER "Jerry Goldsmith" INDEX 01 00:00:00FILE "20 - You did it John.wav" WAVE TRACK 20 AUDIO TITLE "You did it John" PERFORMER "Jerry Goldsmith" INDEX 01 00:00:00FILE "21 - The Showdown.wav" WAVE TRACK 21 AUDIO TITLE "The Showdown" PERFORMER "Jerry Goldsmith" INDEX 01 00:00:00FILE "22 - Final Battle.wav" WAVE TRACK 22 AUDIO TITLE "Final Battle" PERFORMER "Jerry Goldsmith" INDEX 01 00:00:00FILE "23 - I'll Stay.wav" WAVE TRACK 23 AUDIO TITLE "I'll Stay" PERFORMER "Jerry Goldsmith" INDEX 01 00:00:00
<div class="q-wrap">
<div class="q-head"><b>Цитата:</b></div>
<div class="q">Score: 100 (out of 100)</div>
</div>
</div>
</div>
[spoiler="2008 - Рэмбо IV / Rambo [Lions Gate, LGM2-0014] by Brian Tyler (01:16:45)"]
01 - Rambo Theme
02 - No Rules of Engagement
03 - Conscription
04 - The Rescue
05 - Aftermath
06 - Searching for Missionaries
07 - Hunting Mercenaries
08 - Crossing into Burma
09 - The Villagec
10 - Rambo Returns
11 - When You are Pushed
12 - The Call to War
13 - Atrocities
14 - Prison Camp
15 - Attack on the Village
16 - Rambo Takes Charge
17 - The Compound
18 - Battle Adagio
19 - Rambo Main Title
20 - Rambo End Title
<div class="sp-wrap">
<div class="sp-head folded">Лог создания рипа</div>
<div class="sp-body">

Exact Audio Copy V1.1 from 23. June 2015

EAC extraction logfile from 16. September 2015, 3:39

Brian Tyler / Rambo

Used drive : TSSTcorpCDDVDW SE-208DB Adapter: 1 ID: 1

Read mode : SecureUtilize accurate stream : YesDefeat audio cache : YesMake use of C2 pointers : No

Read offset correction : 6Overread into Lead-In and Lead-Out : NoFill up missing offset samples with silence : YesDelete leading and trailing silent blocks : NoNull samples used in CRC calculations : YesUsed interface : Native Win32 interface for Win NT & 2000Gap handling : Appended to previous track

Used output format : User Defined EncoderSelected bitrate : 1024 kBit/sQuality : HighAdd ID3 tag : NoCommand line compressor : C:\Program Files (x86)\Exact Audio Copy\Flac\flac.exeAdditional command line options : -8 -V -T "ARTIST=%artist%" -T "TITLE=%title%" -T "ALBUM=%albumtitle%" -T "DATE=%year%" -T "TRACKNUMBER=%tracknr%" -T "GENRE=%genre%" -T "PERFORMER=%albuminterpret%" -T "COMPOSER=%composer%" %haslyrics%--tag-from-file=LYRICS="%lyricsfile%"%haslyrics% -T "ALBUMARTIST=%albumartist%" -T "DISCNUMBER=%cdnumber%" -T "TOTALDISCS=%totalcds%" -T "TOTALTRACKS=%numtracks%" -T "COMMENT=%comment%" %source% -o %dest%

TOC of the extracted CD

Track | Start | Length | Start sector | End sector --------------------------------------------------------- 1 | 0:00.00 | 3:36.17 | 0 | 16216 2 | 3:36.17 | 7:11.35 | 16217 | 48576 3 | 10:47.52 | 2:57.20 | 48577 | 61871 4 | 13:44.72 | 4:06.26 | 61872 | 80347 5 | 17:51.23 | 2:35.11 | 80348 | 91983 6 | 20:26.34 | 7:09.05 | 91984 | 124163 7 | 27:35.39 | 2:45.46 | 124164 | 136584 8 | 30:21.10 | 7:01.29 | 136585 | 168188 9 | 37:22.39 | 1:45.43 | 168189 | 176106 10 | 39:08.07 | 2:46.01 | 176107 | 188557 11 | 41:54.08 | 2:28.05 | 188558 | 199662 12 | 44:22.13 | 2:53.51 | 199663 | 212688 13 | 47:15.64 | 1:42.03 | 212689 | 220341 14 | 48:57.67 | 4:44.17 | 220342 | 241658 15 | 53:42.09 | 3:03.42 | 241659 | 255425 16 | 56:45.51 | 2:24.52 | 255426 | 266277 17 | 59:10.28 | 7:50.36 | 266278 | 301563 18 | 67:00.64 | 3:14.35 | 301564 | 316148 19 | 70:15.24 | 3:32.00 | 316149 | 332048 20 | 73:47.24 | 2:58.40 | 332049 | 345438

Track 1

Filename C:\EAC\Rambo\01 Rambo Theme.wav

Pre-gap length 0:00:02.00

Peak level 100.0 % Extraction speed 1.2 X Track quality 100.0 % Test CRC 8AE5EAEC Copy CRC 8AE5EAEC Accurately ripped (confidence 4) [C42E6BEB] (AR v2) Copy OK

Track 2

Filename C:\EAC\Rambo\02 No Rules Of Engagement.wav

Pre-gap length 0:00:01.00

Peak level 100.0 % Extraction speed 1.8 X Track quality 100.0 % Test CRC 71FA12C7 Copy CRC 71FA12C7 Accurately ripped (confidence 4) [9344BB88] (AR v2) Copy OK

Track 3

Filename C:\EAC\Rambo\03 Conscription.wav

Pre-gap length 0:00:02.00

Peak level 100.0 % Extraction speed 1.1 X Track quality 99.9 % Test CRC 0973CD84 Copy CRC 0973CD84 Accurately ripped (confidence 4) [ADF9EC09] (AR v2) Copy OK

Track 4

Filename C:\EAC\Rambo\04 The Rescue.wav

Pre-gap length 0:00:01.00

Peak level 100.0 % Extraction speed 1.3 X Track quality 99.9 % Test CRC 57DAF943 Copy CRC 57DAF943 Accurately ripped (confidence 4) [991CB11C] (AR v2) Copy OK

Track 5

Filename C:\EAC\Rambo\05 Aftermath.wav

Pre-gap length 0:00:01.00

Peak level 100.0 % Extraction speed 1.4 X Track quality 100.0 % Test CRC 48AA8F0E Copy CRC 48AA8F0E Accurately ripped (confidence 4) [1CE33B4F] (AR v2) Copy OK

Track 6

Filename C:\EAC\Rambo\06 Searching For Missionaries.wav

Pre-gap length 0:00:01.00

Peak level 100.0 % Extraction speed 1.8 X Track quality 100.0 % Test CRC 5CA6C918 Copy CRC 5CA6C918 Accurately ripped (confidence 4) [05A3E06F] (AR v2) Copy OK

Track 7

Filename C:\EAC\Rambo\07 Hunting Mercenaries.wav

Pre-gap length 0:00:01.00

Peak level 100.0 % Extraction speed 1.6 X Track quality 100.0 % Test CRC 6C2C65F1 Copy CRC 6C2C65F1 Accurately ripped (confidence 4) [1C47D6DF] (AR v2) Copy OK

Track 8

Filename C:\EAC\Rambo\08 Crossing Into Burma.wav

Pre-gap length 0:00:01.00

Peak level 100.0 % Extraction speed 1.9 X Track quality 100.0 % Test CRC 5DEE2DE4 Copy CRC 5DEE2DE4 Accurately ripped (confidence 4) [A1826E7E] (AR v2) Copy OK

Track 9

Filename C:\EAC\Rambo\09 The Village.wav

Pre-gap length 0:00:01.00

Peak level 93.3 % Extraction speed 1.2 X Track quality 99.8 % Test CRC 41139025 Copy CRC 41139025 Accurately ripped (confidence 4) [BD76832E] (AR v2) Copy OK

Track 10

Filename C:\EAC\Rambo\10 Rambo Returns.wav

Pre-gap length 0:00:01.00

Peak level 100.0 % Extraction speed 1.5 X Track quality 99.9 % Test CRC 3ECCB204 Copy CRC 3ECCB204 Accurately ripped (confidence 4) [6D325910] (AR v2) Copy OK

Track 11

Filename C:\EAC\Rambo\11 When You Are Pushed.wav

Pre-gap length 0:00:01.00

Peak level 100.0 % Extraction speed 1.5 X Track quality 99.9 % Test CRC D1441E23 Copy CRC D1441E23 Accurately ripped (confidence 4) [BA5947B7] (AR v2) Copy OK

Track 12

Filename C:\EAC\Rambo\12 The Call To War.wav

Pre-gap length 0:00:01.00

Peak level 99.9 % Extraction speed 1.9 X Track quality 100.0 % Test CRC 889E466F Copy CRC 889E466F Accurately ripped (confidence 4) [92661ACC] (AR v2) Copy OK

Track 13

Filename C:\EAC\Rambo\13 Atrocities.wav

Pre-gap length 0:00:01.00

Peak level 100.0 % Extraction speed 1.7 X Track quality 100.0 % Test CRC 539A73B6 Copy CRC 539A73B6 Accurately ripped (confidence 4) [810ED804] (AR v2) Copy OK

Track 14

Filename C:\EAC\Rambo\14 Prison Camp.wav

Pre-gap length 0:00:01.00

Peak level 87.4 % Extraction speed 2.1 X Track quality 100.0 % Test CRC 5AD43BC5 Copy CRC 5AD43BC5 Accurately ripped (confidence 4) [58019818] (AR v2) Copy OK

Track 15

Filename C:\EAC\Rambo\15 Attack On The Village.wav

Pre-gap length 0:00:01.00

Peak level 100.0 % Extraction speed 1.7 X Track quality 99.9 % Test CRC E6EAB4E7 Copy CRC E6EAB4E7 Accurately ripped (confidence 4) [B8F9C4B9] (AR v2) Copy OK

Track 16

Filename C:\EAC\Rambo\16 Rambo Takes Charge.wav

Pre-gap length 0:00:02.00

Peak level 100.0 % Extraction speed 2.0 X Track quality 100.0 % Test CRC E00810DF Copy CRC E00810DF Accurately ripped (confidence 4) [53E9E9A7] (AR v2) Copy OK

Track 17

Filename C:\EAC\Rambo\17 The Compound.wav

Pre-gap length 0:00:01.00

Peak level 100.0 % Extraction speed 2.4 X Track quality 100.0 % Test CRC E91F4255 Copy CRC E91F4255 Accurately ripped (confidence 4) [B97FCA88] (AR v2) Copy OK

Track 18

Filename C:\EAC\Rambo\18 Battle Adagio.wav

Pre-gap length 0:00:01.00

Peak level 100.0 % Extraction speed 2.1 X Track quality 100.0 % Test CRC CC48D071 Copy CRC CC48D071 Accurately ripped (confidence 4) [F2C78AB1] (AR v2) Copy OK

Track 19

Filename C:\EAC\Rambo\19 Rambo Main Title.wav

Pre-gap length 0:00:03.00

Peak level 100.0 % Extraction speed 2.3 X Track quality 100.0 % Test CRC AD62580F Copy CRC AD62580F Accurately ripped (confidence 4) [613DB59B] (AR v2) Copy OK

Track 20

Filename C:\EAC\Rambo\20 Rambo End Title.wav

Pre-gap length 0:00:01.00

Peak level 100.0 % Extraction speed 2.3 X Track quality 100.0 % Test CRC B3D66933 Copy CRC B3D66933 Accurately ripped (confidence 4) [37EE0FA0] (AR v2) Copy OK

All tracks accurately ripped

No errors occurred

End of status report

---- CUETools DB Plugin V2.1.6

[CTDB TOCID: ywH_B3C5beFnZ2KCX_65N03EUT0-] foundSubmit result: ywH_B3C5beFnZ2KCX_65N03EUT0- has been confirmedTrack | CTDB Status 1 | (6/6) Accurately ripped 2 | (6/6) Accurately ripped 3 | (6/6) Accurately ripped 4 | (6/6) Accurately ripped 5 | (6/6) Accurately ripped 6 | (6/6) Accurately ripped 7 | (6/6) Accurately ripped 8 | (6/6) Accurately ripped 9 | (6/6) Accurately ripped 10 | (6/6) Accurately ripped 11 | (6/6) Accurately ripped 12 | (6/6) Accurately ripped 13 | (6/6) Accurately ripped 14 | (6/6) Accurately ripped 15 | (6/6) Accurately ripped 16 | (4/6) Accurately ripped 17 | (6/6) Accurately ripped 18 | (6/6) Accurately ripped 19 | (6/6) Accurately ripped 20 | (6/6) Accurately ripped

==== Log checksum ECAA76B54A0BEF401184BF9FC8632043875CF31B873892DFD9CDA261F6FA1F54 ====
[/spoiler]
REM GENRE SoundtrackREM DATE 2008REM DISCID 1C11FD14REM COMMENT "ExactAudioCopy v1.1"PERFORMER "Brian Tyler"TITLE "Rambo"FILE "01 - Rambo Theme.wav" WAVE TRACK 01 AUDIO TITLE "Rambo Theme" PERFORMER "Brian Tyler" ISRC GBAJC0800002 INDEX 01 00:00:00 TRACK 02 AUDIO TITLE "No Rules of Engagement" PERFORMER "Brian Tyler" ISRC GBAJC0800003 INDEX 00 03:35:17FILE "02 - No Rules of Engagement.wav" WAVE INDEX 01 00:00:00 TRACK 03 AUDIO TITLE "Conscription" PERFORMER "Brian Tyler" ISRC GBAJC0800004 INDEX 00 07:09:35FILE "03 - Conscription.wav" WAVE INDEX 01 00:00:00 TRACK 04 AUDIO TITLE "The Rescue" PERFORMER "Brian Tyler" ISRC GBAJC0800005 INDEX 00 02:56:20FILE "04 - The Rescue.wav" WAVE INDEX 01 00:00:00 TRACK 05 AUDIO TITLE "Aftermath" PERFORMER "Brian Tyler" ISRC GBAJC0800006 INDEX 00 04:05:26FILE "05 - Aftermath.wav" WAVE INDEX 01 00:00:00 TRACK 06 AUDIO TITLE "Searching for Missionaries" PERFORMER "Brian Tyler" ISRC GBAJC0800007 INDEX 00 02:34:11FILE "06 - Searching for Missionaries.wav" WAVE INDEX 01 00:00:00 TRACK 07 AUDIO TITLE "Hunting Mercenaries" PERFORMER "Brian Tyler" ISRC GBAJC0800008 INDEX 00 07:08:05FILE "07 - Hunting Mercenaries.wav" WAVE INDEX 01 00:00:00 TRACK 08 AUDIO TITLE "Crossing into Burma" PERFORMER "Brian Tyler" ISRC GBAJC0800009 INDEX 00 02:44:46FILE "08 - Crossing into Burma.wav" WAVE INDEX 01 00:00:00 TRACK 09 AUDIO TITLE "The Village" PERFORMER "Brian Tyler" ISRC GBAJC0800010 INDEX 00 07:00:29FILE "09 - The Village.wav" WAVE INDEX 01 00:00:00 TRACK 10 AUDIO TITLE "Rambo Returns" PERFORMER "Brian Tyler" ISRC GBAJC0800011 INDEX 00 01:44:43FILE "10 - Rambo Returns.wav" WAVE INDEX 01 00:00:00 TRACK 11 AUDIO TITLE "When You are Pushed" PERFORMER "Brian Tyler" ISRC GBAJC0800012 INDEX 00 02:45:01FILE "11 - When You are Pushed.wav" WAVE INDEX 01 00:00:00 TRACK 12 AUDIO TITLE "The Call to War" PERFORMER "Brian Tyler" ISRC GBAJC0800013 INDEX 00 02:27:05FILE "12 - The Call to War.wav" WAVE INDEX 01 00:00:00 TRACK 13 AUDIO TITLE "Atrocities" PERFORMER "Brian Tyler" ISRC GBAJC0800014 INDEX 00 02:52:51FILE "13 - Atrocities.wav" WAVE INDEX 01 00:00:00 TRACK 14 AUDIO TITLE "Prison Camp" PERFORMER "Brian Tyler" ISRC GBAJC0800015 INDEX 00 01:41:03FILE "14 - Prison Camp.wav" WAVE INDEX 01 00:00:00 TRACK 15 AUDIO TITLE "Attack on the Village" PERFORMER "Brian Tyler" ISRC GBAJC0800016 INDEX 00 04:43:17FILE "15 - Attack on the Village.wav" WAVE INDEX 01 00:00:00 TRACK 16 AUDIO TITLE "Rambo Takes Charge" PERFORMER "Brian Tyler" ISRC GBAJC0800017 INDEX 00 03:01:42FILE "16 - Rambo Takes Charge.wav" WAVE INDEX 01 00:00:00 TRACK 17 AUDIO TITLE "The Compound" PERFORMER "Brian Tyler" ISRC GBAJC0800018 INDEX 00 02:23:52FILE "17 - The Compound.wav" WAVE INDEX 01 00:00:00 TRACK 18 AUDIO TITLE "Battle Adagio" PERFORMER "Brian Tyler" ISRC GBAJC0800019 INDEX 00 07:49:36FILE "18 - Battle Adagio.wav" WAVE INDEX 01 00:00:00 TRACK 19 AUDIO TITLE "Rambo Main Title" PERFORMER "Brian Tyler" ISRC GBAJC0800020 INDEX 00 03:11:35FILE "19 - Rambo Main Title.wav" WAVE INDEX 01 00:00:00 TRACK 20 AUDIO TITLE "Rambo End Title" PERFORMER "Brian Tyler" ISRC GBAJC0800021 INDEX 00 03:31:00FILE "20 - Rambo End Title.wav" WAVE INDEX 01 00:00:00
<div class="q-wrap">
<div class="q-head"><b>Цитата:</b></div>
<div class="q">Score: 100 (out of 100)</div>
</div>
</div>
</div>


Трекер:  [ 31-Мар-2017 20:30 ]

  

Скачать .torrent

Размер .torrent файла 35 KB


Размер: 2.11 GB
Хэш (hash) релиза: 2435d693ff145620551081a1726dd2ccc43a6a52

Еще никто не оставлял запись к записи скачать торрент Рэмбо: Первая кровь | 2 | Рэмбо 3 | IV First Blood | Part II | III | Rambo . Будь первым!

!Обратная связь