Скачать через торрент Город предсказательниц Urara Meirochou бесплатно Аниме Все серии на русском torrent

Если у вас наблюдаются проблемы со скриншотами, переходом по ссылками, скачиванием торрентов - проблемы в блокировщике рекламы AdBlock. #хорошегоДня!


Статистика раздачи
Размер:  15.76 GB   |    Зарегистрирован:  8 месяцев   |    .torrent скачан:  26 раз   |   
Раздают:  1  
   
Загрузка...
 
Автор Сообщение

Galfimbul

avatar Galfimbul


Город предсказательниц / Urara Meirochou

Год выпуска: 2017
Страна: Япония
Жанр: комедия, повседневность
Тип: TV
Продолжительность: 12 эп. по 25 мин.
Озвучка: нет

Русские субтитры: есть (отдельным файлом, формат .ass)
Перевод:

Undokaktyz

Хардсаб: Нет
Режиссер: Судзуки Ёхэй
Студия: J. C. Staff

Описание: Действие этого аниме разворачивается в небольшом городке Мейрочоу, название которого переводится как «Городок Лабиринтов». Жительницы этого городка занимаются важнейшей миссией – они предсказывают будущее! Однажды, в ворота Мейрочоу входит наша героиня – одинокая пятнадцатилетняя девочка по имени Чия. Эта светловолосая красавица выросла в гористой местности и решила продолжить свою жизнь в городе предсказательниц. Она, как и многие другие девушки, держащие путь в этот городок, пришла сюда с одной непростой целью – стать главной и самой лучшей предсказательницей, которая носит звание Урара.

На пути к своей мечте Чия встречает верных подруг: серьёзную и искреннюю Тацуми Кон, Юкими Коумэ - фанатку всего, что имеет общее с западной культурой, а также скромную и застенчивую девушку по имени Нацумэ Ноно. У четырёх героинь этого произведения общая мечта, но добиться звания главной прорицательницы Урара сможет только одна девушка. Не помешает ли конкуренция юным ученицам? Смогут ли они сохранить свою дружбу, несмотря ни на что?

Качество: Blu-Ray Remux
Формат: MKV
Видео кодек: AVC
Аудио кодек: FLAC
Видео: 1920x1080 (16:9) 23,976 fps ~38,3 Mbps 8bit
Аудио:
Jap FLAC, 48000Hz, ~756 Kbps, 2ch

Чаптеры присутствуют.
01. The Fortune-Teller Girl Sometimes Shows Her Stomach
02.The Things We Search for and Our Dreams Are Sometimes Sweet!

03. Our Friends and Colleagues Are Sometimes Rivals!
04. Good and Bad Things Are Sometimes Ticklish
05. Brides and Gods Sometimes Sneeze
06. Love and Pursuit Sometimes Go "Good Girl, Good Girl!
07. Invocations and Witches Sometimes Have to Be Ready
08. Forbidden Things Are Sometimes Totally Naked
09. Mothers and Knowledge Are Sometimes for You
10. Four Girls and the Ranking Exam Are Sometimes a Trial
11. Chiya and the Dark Sometimes Cry
12. Baths and Celebrations Sometimes Have Smiles!
Общее
Уникальный идентификатор : 223341280923707297838918857029279868537 (0xA805F750AEE20987BA817592E190E679)
Полное имя : Z:\Anime Release - working\Urara Meirochou\[anti-raws]Urara Meirochou ep.01[BDRemux].mkv
Формат : Matroska
Версия формата : Version 4 / Version 2
Размер файла : 6,76 Гбайт
Продолжительность : 24 м.
Режим общего битрейта : Переменный
Общий поток : 40,0 Мбит/сек
Дата кодирования : UTC 2017-04-01 19:09:49
Программа кодирования : mkvmerge v10.0.0 ('To Drown In You') 64bit
Библиотека кодирования : libebml v1.3.4 + libmatroska v1.4.5

Видео
Идентификатор : 2
Формат : AVC
Формат/Информация : Advanced Video Codec
Профиль формата : High@L4.1
Параметр CABAC формата : Да
Параметр ReFrames формата : 4 кадра
Идентификатор кодека : V_MPEG4/ISO/AVC
Продолжительность : 24 м.
Вид битрейта : Переменный
Битрейт : 39,2 Мбит/сек
Максимальный битрейт : 40,0 Мбит/сек
Ширина : 1920 пикселей
Высота : 1080 пикселей
Соотношение сторон : 16:9
Режим частоты кадров : Постоянный
Частота кадров : 23,976 (24000/1001) кадра/сек
Цветовое пространство : YUV
Субдискретизация насыщенности : 4:2:0
Битовая глубина : 8 бит
Тип развёртки : Прогрессивная
Бит/(Пиксели*Кадры) : 0.789
Размер потока : 6,64 Гбайт (98%)
Default : Нет
Forced : Нет
Цветовой диапазон : Limited
Основные цвета : BT.709
Характеристики трансфера : BT.709
Коэффициенты матрицы : BT.709

Аудио
Идентификатор : 1
Формат : FLAC
Формат/Информация : Free Lossless Audio Codec
Идентификатор кодека : A_FLAC
Продолжительность : 24 м.
Вид битрейта : Переменный
Битрейт : 756 Кбит/сек
Каналы : 2 канала
Расположение каналов : Front: L R
Частота : 48,0 КГц
Частота кадров : 11,719 кадров/сек (4096 spf)
Битовая глубина : 16 бит
Размер потока : 131 Мбайт (2%)
Библиотека кодирования : libFLAC 1.2.1 (UTC 2007-09-17)
Язык : Japanese
Default : Да
Forced : Нет

Меню
00:00:00.000 : en:00:00:00.000
00:01:01.061 : en:00:01:01.061
00:02:31.026 : en:00:02:31.026
00:12:07.018 : en:00:12:07.018
00:22:26.053 : en:00:22:26.053
00:23:56.018 : en:00:23:56.018
...5339794
--HDTVRip

Эта раздача - BDRemux


Трекер:  [ 02-Апр-2017 01:00 ]

  

Скачать .torrent

Размер .torrent файла 21 KB


Размер: 15.76 GB
Хэш (hash) релиза: dcd5f7fb81040ea140a3dd028ca243209ad90bab
Подписка на обновления:

Торренты, похожие на Город предсказательниц Urara Meirochou скачать торрент

Форум Название Автор Размер S L Добавлен
Аниме | HD Rips ·· Город предсказательниц / Urara Meirochou (Судзуки Ёхэй) [TV] [2 из 12] [без хардсаба] [JAP+SUB] [2017, комедия, BDRip] [720p] Galfimbul 11139698391.04 GB 0 0 1499630544

23:02

9-Июл-17

Аниме | Rips ·· Город предсказательниц / Urara Meirochou (Судзуки Ёхэй) [TV] [2 из 12] [без хардсаба] [RUS(ext), JAP+SUB] [2017, комедия, BDRip] [720p] Galfimbul 11861338841.1 GB 0 0 1499630531

23:02

9-Июл-17

Аниме | HD Rips ·· Город предсказательниц / Urara Meirochou [TV] [1 из 12] [Без хардсаба] [JAP+SUB] [2017, комедия, повседневность, BDRip] [1080p] Galfimbul 14584580851.36 GB 0 0 1496965272

02:41

9-Июн-17

Аниме | HD Rips ·· Город предсказательниц / Urara Meirochou [TV] [1-2 из 12] [Без хардсаба] [JAP+SUB] [2017, комедия, повседневность, BDRip] [1080p] Galfimbul 22040727442.05 GB 0 0 1491709821

06:50

9-Апр-17

Аниме | Rips ·· Город предсказательниц / Urara Meirochou [TV] [01-08 из 12] [RUS(ext), JAP] & [01-07 из 12] [SUB] [Без хардсаба] [2017, Повседневность, Приключения, Комедия, Сёнен, HDTVRip] [720p] Galfimbul 37098830453.46 GB 0 0 1488540461

14:27

3-Мар-17

Аниме | Rips ·· Город предсказательниц / Urara Meirochou [TV] [01-02 из 12] [Без хардсаба] [RUS(ext), JAP, SUB] [2017, Повседневность, Приключения, Комедия, Сёнен, HDTVRip] [720p] Galfimbul 933138502890 MB 0 0 1485165832

13:03

23-Янв-17

Аниме | HD Rips ·· Город предсказательниц / Urara Meirochou (Судзуки Ёхэй) [TV] [1 из 12] [Без хардсаба] [JAP+SUB] [2017, комедия, повседневность, HDTVRip] [720p] Galfimbul 492970375470 MB 0 0 1484125008

11:56

11-Янв-17

Еще никто не оставлял запись к записи скачать торрент Город предсказательниц Urara Meirochou . Будь первым!

!Обратная связь