Скачать через торрент музыку бесплатно без регистрации torrent

Если у вас наблюдаются проблемы со скриншотами, переходом по ссылками, скачиванием торрентов - проблемы в блокировщике рекламы AdBlock. #хорошегоДня!


Статистика раздачи
Размер:  363 MB   |    Зарегистрирован:  8 месяцев   |    .torrent скачан:  25 раз   |   
Раздают:  1  
   
Загрузка...
 
Автор Сообщение

Galfimbul

avatar Galfimbul


Голос монстра / A Monster Calls

Жанр: Score
Носитель: CD
Композитор: Fernando Velazquez
Год выпуска диска: 2016
Страна-производитель диска: U.S.A.
Издатель (лейбл): Back Lot Music
Номер по каталогу: BLM0663
Аудиокодек: FLAC (*.flac)
Тип рипа: image+.cue
Битрейт аудио: lossless
Продолжительность: 71:03
Источник: собственный рип
Наличие сканов в содержимом раздачи: да
Треклист:
01. Tear Up This Town - KEANE 03:13
02. Conor Wakes Up / Main Title 04:09
03. Drawing 01:21
04. The Monster Wakes Up 03:21
05. Crisis 01:00
06. The Second Encounter 02:12
07. The First Tale 07:28
08. The School 03:20
09. Home Alone / Dad Arrives 02:46
10. Grandma´s Clock / The Second Tale 08:11
11. Break Things 01:00
12. A World Destroyed 01:04
13. Big Dreams 01:34
14. A New Hope / Dad Leaves 02:31
15. Montage 04:36
16. The Third Tale 02:42
17. I Wish I Had A Hundred Years 02:10
18. The Truth 05:01
19. End Credits 05:08
20. Montage (Feat. Felicity Jones) 04:36
21. Tear Up This Town (Film Version) - KEANE 03:07
Exact Audio Copy V1.1 from 23. June 2015

EAC extraction logfile from 4. April 2017, 12:24

Fernando Velazquez / A Monster Calls

Used drive : HP DVD Writer 1170d Adapter: 1 ID: 1

Read mode : SecureUtilize accurate stream : YesDefeat audio cache : YesMake use of C2 pointers : No

Read offset correction : 6Overread into Lead-In and Lead-Out : NoFill up missing offset samples with silence : YesDelete leading and trailing silent blocks : NoNull samples used in CRC calculations : YesUsed interface : Native Win32 interface for Win NT & 2000

Used output format : User Defined EncoderSelected bitrate : 1024 kBit/sQuality : HighAdd ID3 tag : NoCommand line compressor : C:\Program Files (x86)\Exact Audio Copy\Flac\flac.exeAdditional command line options : -V -8 -T "Date=%year%" -T "Genre=%genre%" %source%

TOC of the extracted CD

Track | Start | Length | Start sector | End sector --------------------------------------------------------- 1 | 0:00.00 | 3:12.59 | 0 | 14458 2 | 3:12.59 | 4:11.42 | 14459 | 33325 3 | 7:24.26 | 1:21.03 | 33326 | 39403 4 | 8:45.29 | 3:22.73 | 39404 | 54626 5 | 12:08.27 | 1:01.57 | 54627 | 59258 6 | 13:10.09 | 2:11.55 | 59259 | 69138 7 | 15:21.64 | 7:31.11 | 69139 | 102974 8 | 22:53.00 | 3:22.29 | 102975 | 118153 9 | 26:15.29 | 2:48.54 | 118154 | 130807 10 | 29:04.08 | 8:11.13 | 130808 | 167645 11 | 37:15.21 | 1:04.32 | 167646 | 172477 12 | 38:19.53 | 1:06.42 | 172478 | 177469 13 | 39:26.20 | 1:35.21 | 177470 | 184615 14 | 41:01.41 | 2:31.72 | 184616 | 196012 15 | 43:33.38 | 4:38.57 | 196013 | 216919 16 | 48:12.20 | 2:42.30 | 216920 | 229099 17 | 50:54.50 | 2:12.63 | 229100 | 239062 18 | 53:07.38 | 5:02.51 | 239063 | 261763 19 | 58:10.14 | 5:07.66 | 261764 | 284854 20 | 63:18.05 | 4:38.57 | 284855 | 305761 21 | 67:56.62 | 3:07.09 | 305762 | 319795

Range status and errors

Selected range

Filename C:\EAC\Ungern666\Fernando Velazquez - A Monster Calls.wav

Peak level 100.0 % Extraction speed 7.1 X Range quality 99.9 % Test CRC B271E907 Copy CRC B271E907 Copy OK

No errors occurred

AccurateRip summary

Track 1 cannot be verified as accurate (confidence 3) [6C0F69D3], AccurateRip returned [5C2AD40C] (AR v2)Track 2 cannot be verified as accurate (confidence 3) [F2B9DB3F], AccurateRip returned [8773D5EC] (AR v2)Track 3 cannot be verified as accurate (confidence 3) [3D156DC1], AccurateRip returned [11A32D26] (AR v2)Track 4 cannot be verified as accurate (confidence 3) [C2D16B4A], AccurateRip returned [4F320BDE] (AR v2)Track 5 cannot be verified as accurate (confidence 3) [A0794BAF], AccurateRip returned [CD45C18A] (AR v2)Track 6 cannot be verified as accurate (confidence 3) [11072862], AccurateRip returned [52A1789D] (AR v2)Track 7 cannot be verified as accurate (confidence 3) [7790F658], AccurateRip returned [01D096AA] (AR v2)Track 8 cannot be verified as accurate (confidence 3) [86F15D3C], AccurateRip returned [C00DF237] (AR v2)Track 9 cannot be verified as accurate (confidence 3) [85D5D57B], AccurateRip returned [A3C1FD9A] (AR v2)Track 10 cannot be verified as accurate (confidence 3) [91A6735D], AccurateRip returned [395B22C6] (AR v2)Track 11 cannot be verified as accurate (confidence 3) [870B3605], AccurateRip returned [4DBB2F6D] (AR v2)Track 12 cannot be verified as accurate (confidence 3) [F0722CD2], AccurateRip returned [4DEF2A5E] (AR v2)Track 13 cannot be verified as accurate (confidence 3) [F861AFF4], AccurateRip returned [000A9876] (AR v2)Track 14 cannot be verified as accurate (confidence 3) [60404DF2], AccurateRip returned [51F92E3C] (AR v2)Track 15 cannot be verified as accurate (confidence 3) [8F201306], AccurateRip returned [E525773F] (AR v2)Track 16 cannot be verified as accurate (confidence 3) [C18FC9D8], AccurateRip returned [936DF375] (AR v2)Track 17 cannot be verified as accurate (confidence 3) [B994EF51], AccurateRip returned [5D1C00E5] (AR v2)Track 18 cannot be verified as accurate (confidence 3) [319AF9CC], AccurateRip returned [BF7CD3CD] (AR v2)Track 19 cannot be verified as accurate (confidence 3) [E7B04AF6], AccurateRip returned [4C30B178] (AR v2)Track 20 cannot be verified as accurate (confidence 3) [BBD7E77C], AccurateRip returned [9527F1E2] (AR v2)Track 21 cannot be verified as accurate (confidence 3) [C640F3CB], AccurateRip returned [2D2DB0E8] (AR v2)

No tracks could be verified as accurateYou may have a different pressing from the one(s) in the database

End of status report

---- CUETools DB Plugin V2.1.6

[CTDB TOCID: Tn3AkzBM.FyqUvlLhtDDAbJpOdY-] foundSubmit result: Tn3AkzBM.FyqUvlLhtDDAbJpOdY- has been confirmedTrack | CTDB Status 1 | (11/11) Accurately ripped 2 | (11/11) Accurately ripped 3 | (11/11) Accurately ripped 4 | (11/11) Accurately ripped 5 | (11/11) Accurately ripped 6 | (11/11) Accurately ripped 7 | (11/11) Accurately ripped 8 | (11/11) Accurately ripped 9 | (11/11) Accurately ripped 10 | (11/11) Accurately ripped 11 | (11/11) Accurately ripped 12 | (11/11) Accurately ripped 13 | (11/11) Accurately ripped 14 | (11/11) Accurately ripped 15 | (11/11) Accurately ripped 16 | (11/11) Accurately ripped 17 | (11/11) Accurately ripped 18 | (11/11) Accurately ripped 19 | (11/11) Accurately ripped 20 | (11/11) Accurately ripped 21 | (11/11) Accurately ripped

==== Log checksum DDB77A68F3B197CBF34CB2EA5F8E02795C43ABA6C09A12FCCBA1FDE5DCD6F8F3 ====


Материал предназначен для ознакомления!

Трекер:  [ 04-Апр-2017 16:00 ]

  

Скачать .torrent

Размер .torrent файла 15 KB


Размер: 363 MB
Хэш (hash) релиза: 4682b1abc10abc91c6abdc264eaae0ae4c57e7a5

Еще никто не оставлял запись к записи скачать торрент . Будь первым!

!Обратная связь