Скачать через торрент Жаркая ночка с монахом Souryo to Majiwaru Shikiyoku no Yoru ni... бесплатно Аниме Все серии на русском torrent

Если у вас наблюдаются проблемы со скриншотами, переходом по ссылками, скачиванием торрентов - проблемы в блокировщике рекламы AdBlock. #хорошегоДня!


Статистика раздачи
Размер:  41 MB   |    Зарегистрирован:  8 месяцев   |    .torrent скачан:  35 раз   |   
Раздают:  1  
   
Загрузка...
 
Автор Сообщение

Galfimbul

avatar Galfimbul


Жаркая ночка с монахом / Souryo to Majiwaru Shikiyoku no Yoru ni...
Страна: Япония
Год выпуска: 2017
Жанр: романтика, эротика, дзёсэй
Тип: ТВ
Продолжительность: 12 эп. по 4 мин.
Режиссер: Араки Хидэки
Студия: Seven
Перевод: Nachtwandler & Alex Myth
Озвучание: двухголосое (муж./жен.) от Soer, MezIdA [DeadLine Studio]
Работа со звуком: Soer [DeadLine Studio]
Описание:
Горячая романтическая история начинается с того, что молодая девушка, только что пережившая тяжёлый разрыв отношений, вновь видится со своей первой любовью на школьной встрече выпускников. За годы Куджо превратился в красавца-мужчину… который, правда, является бритоголовым монахом и главным жрецом в семейном храме. Героиня думала, что монахам не позволено иметь романтических связей, но новая встреча пробудила давнюю страсть, и теперь девушку терзают сомнения по поводу правильности и уместности её новых отношений.
Качество: HDTVRip | Формат: .mkv | Рип: Leopard-Raws
Видео: x264(8 bit.), 1280x720, 1776 Kbps, 23.976 fps
Звук (Russian): AC3, 192 kbps, 48.0 KHz, 2.0 ch | [2VO]
Звук (Japanese): ААС, 192 kbps, 48.0 KHz, 2.0 ch | Original
Субтитры (Russian): ass, встроенные | Надписи
Субтитры (Russian): ass, встроенные | Субтитры
Хардсаб: отсутствует
01. Я хоть и священник, но тоже мужик
General
Unique ID : 252735357026639896996017383952383571960 (0xBE230F286800231C97681294F2AD77F8)
Complete name : D:\[DLS] Souryo to Majiwaru Shikiyoku no Yoru ni [Soer & MezIdA]\[DeadLine] Souryo to Majiwaru Shikiyoku no Yoru ni - 01 [Soer & MezIdA] [720p HDTVRip].mkv
Format : Matroska
Format version : Version 4 / Version 2
File size : 41.1 MiB
Duration : 3mn 30s
Overall bit rate : 1 643 Kbps
Encoded date : UTC 2017-04-04 14:36:45
Writing application : mkvmerge v7.6.0 ('Garden of Dreams') 64bit built on Feb 8 2015 13:04:34
Writing library : libebml v1.3.1 + libmatroska v1.4.2

Video
ID : 1
Format : AVC
Format/Info : Advanced Video Codec
Format profile : High@L4.1
Format settings, CABAC : Yes
Format settings, ReFrames : 4 frames
Codec ID : V_MPEG4/ISO/AVC
Duration : 3mn 29s
Bit rate : 1 257 Kbps
Width : 1 280 pixels
Height : 720 pixels
Display aspect ratio : 16:9
Frame rate mode : Constant
Frame rate : 23.976 (24000/1001) fps
Color space : YUV
Chroma subsampling : 4:2:0
Bit depth : 8 bits
Scan type : Progressive
Bits/(Pixel*Frame) : 0.057
Stream size : 31.5 MiB (77%)
Writing library : x264 core 129 r2245+729M 1a52e03
Encoding settings : cabac=1 / ref=4 / deblock=1:1:-1 / analyse=0x3:0x113 / me=umh / subme=9 / psy=1 / fade_compensate=0.00 / psy_rd=1.00:0.00 / mixed_ref=1 / me_range=24 / chroma_me=1 / trellis=2 / 8x8dct=1 / cqm=0 / deadzone=21,11 / fast_pskip=1 / chroma_qp_offset=-2 / threads=8 / lookahead_threads=1 / sliced_threads=0 / nr=0 / decimate=1 / interlaced=0 / bluray_compat=0 / constrained_intra=0 / fgo=0 / bframes=9 / b_pyramid=2 / b_adapt=2 / b_bias=0 / direct=1 / weightb=1 / open_gop=0 / weightp=2 / keyint=240 / keyint_min=24 / scenecut=40 / intra_refresh=0 / rc=crf / mbtree=0 / crf=18.5 / qcomp=0.72 / qpmin=0 / qpmax=69 / qpstep=4 / ip_ratio=1.40 / pb_ratio=1.30 / aq=1:0.85
Default : Yes
Forced : No
Color range : Limited
Color primaries : BT.709
Transfer characteristics : BT.709
Matrix coefficients : BT.709

Audio #1
ID : 2
Format : AC-3
Format/Info : Audio Coding 3
Mode extension : CM (complete main)
Format settings, Endianness : Big
Codec ID : A_AC3
Duration : 3mn 29s
Bit rate mode : Constant
Bit rate : 192 Kbps
Channel(s) : 2 channels
Channel positions : Front: L R
Sampling rate : 48.0 KHz
Frame rate : 31.250 fps (1536 spf)
Compression mode : Lossy
Stream size : 4.80 MiB (12%)
Title : [Soer & MezIdA] [Deadline Studio]
Language : Russian
Default : Yes
Forced : Yes

Audio #2
ID : 3
Format : AAC
Format/Info : Advanced Audio Codec
Format profile : LC
Codec ID : A_AAC
Duration : 3mn 30s
Bit rate : 192 Kbps
Channel(s) : 2 channels
Channel positions : Front: L R
Sampling rate : 48.0 KHz
Frame rate : 46.875 fps (1024 spf)
Compression mode : Lossy
Stream size : 4.77 MiB (12%)
Title : Original
Language : Japanese
Default : No
Forced : No

Text #1
ID : 4
Format : ASS
Codec ID : S_TEXT/ASS
Codec ID/Info : Advanced Sub Station Alpha
Duration : 9s 230ms
Bit rate : 285 bps
Count of elements : 2
Compression mode : Lossless
Stream size : 329 Bytes (0%)
Title : Надписи
Language : Russian
Default : Yes
Forced : Yes

Text #2
ID : 5
Format : ASS
Codec ID : S_TEXT/ASS
Codec ID/Info : Advanced Sub Station Alpha
Duration : 3mn 20s
Bit rate : 141 bps
Count of elements : 46
Compression mode : Lossless
Stream size : 3.45 KiB (0%)
Title : Полные субтитры
Language : Russian
Default : No
Forced : No


Трекер:  [ 04-Апр-2017 17:00 ]

  

Скачать .torrent

Размер .torrent файла 13 KB


Размер: 41 MB
Хэш (hash) релиза: b02ab8b177a9a696e8e830de2be445da8d7039bd
Подписка на обновления:

Торренты, похожие на Жаркая ночка с монахом Souryo to Majiwaru Shikiyoku no Yoru ni... скачать торрент

Форум Название Автор Размер S L Добавлен
Аниме | HD Rips ·· Жаркая ночка с монахом / Souryo to Majiwaru Shikiyoku no Yoru ni... (Араки Хидэки) [TV] [01-04 из 12] [Без хардсаба] [RUS(int), JAP+SUB] [2017, романтика, эротика, дзёсэй, HDTVRip] [720p] Galfimbul 171937335164 MB 0 0 1494079426

17:03

6-Май-17

Еще никто не оставлял запись к записи скачать торрент Жаркая ночка с монахом Souryo to Majiwaru Shikiyoku no Yoru ni... . Будь первым!

!Обратная связь