Скачать через торрент Хроники Акаши — худшего магического преподавателя Rokudenashi Majutsu Koushi to Akashic Records бесплатно Аниме Все серии на русском torrent

Если у вас наблюдаются проблемы со скриншотами, переходом по ссылками, скачиванием торрентов - проблемы в блокировщике рекламы AdBlock. #хорошегоДня!


Статистика раздачи
Размер:  353 MB   |    Зарегистрирован:  8 месяцев   |    .torrent скачан:  31 раз   |   
Раздают:  1  
   
Загрузка...
 
Автор Сообщение

Galfimbul

avatar Galfimbul



Страна: Япония
Год выпуска: 2017 г.
Жанр: экшен, фэнтези, магия, школа
Продолжительность: TV Сериал, 12 эп. по 25 мин.
Перевод:

субтитры от Sovet Romantica (полные/надписи)
перевод: Alvakarp, редакция: Akira
Озвучка:

двухголосая от от KingMaster & Milirina (Anything Group)
Режиссер: Minato Kazuto
Студия: LIDEN FILMS
Описание: Сикстина Фибель — весьма выдающаяся волшебница. Однажды она решает поступить в магическую академию, чтобы отточить свои магические навыки и попытаться раскрыть великую тайну «Небесной крепости».Проходит некоторое время и ее любимый учитель уходит на пенсию, а на смену ему приходит парень по имени Глен, который стал преподавателем в академии по рекомендации одной известной ведьмы. И все бы ничего, но на деле Глен оказывается очень ленивым и медлительным, а к своей работе и вовсе относится несерьезно. И как такого бездаря могла выбрать самая выдающаяся ведьма академии? Однако, со временем Глен все-таки показывает, что он идеально разбирается в магической теории.Сможет ли Сикстина раскрыть секрет Глена, а самое главное, удастся ли ей познать великую тайну «Небесной крепости»? © UrAgAnChIk
Ссылки: AniDB || World Art || MAL
Качество: HDTVRip
Автор рипа: Leopard-Raws
Тип релиза: без хардсаба
Формат видео: mkv
Видео: x264 (8bit), 1280x720, ~1600kbps, 23.976fps
Аудио (int) rus : AAC, 192kbps, 48000Hz, 2ch
Аудио (int) jap : AAC, 192kbps, 48000Hz, 2ch
01. Лекция 1. Отброс без мотивации
От раздачи pcab1829

Альтернативная озвучка
<div class="sp-wrap">
<div class="sp-head folded">MediaInfo</div>
<div class="sp-body">

GeneralUnique ID : 253892534546462075018590035258360829943 (0xBF01EC6A194F3D5CB9580293D77597F7)Complete name : E:\RELEASES\Voice\[ARRU] Rokudenashi Majutsu Koushi to Akashic Records TV (HDTVRip 720p x264 AAC) [Anything Group]\[ARRU] Rokudenashi Majutsu Koushi to Akashic Records TV [01] [Anything Group].mkvFormat : MatroskaFormat version : Version 4 / Version 2File size : 353 MiBDuration : 24 minOverall bit rate : 2 058 kb/sEncoded date : UTC 2017-04-05 17:50:22Writing application : mkvmerge v9.8.0 ('Kuglblids') 64bitWriting library : libebml v1.3.4 + libmatroska v1.4.5

VideoID : 1Format : AVCFormat/Info : Advanced Video CodecFormat profile : High@L4.1Format settings, CABAC : YesFormat settings, ReFrames : 4 framesCodec ID : V_MPEG4/ISO/AVCDuration : 24 minBit rate : 1 671 kb/sWidth : 1 280 pixelsHeight : 720 pixelsDisplay aspect ratio : 16:9Frame rate mode : ConstantFrame rate : 23.976 (24000/1001) FPSColor space : YUVChroma subsampling : 4:2:0Bit depth : 8 bitsScan type : ProgressiveBits/(Pixel*Frame) : 0.076Stream size : 287 MiB (81%)Title : akashi - 1Writing library : x264 core 129 r2245+729M 1a52e03Encoding settings : cabac=1 / ref=4 / deblock=1:1:-1 / analyse=0x3:0x113 / me=umh / subme=9 / psy=1 / fade_compensate=0.00 / psy_rd=1.00:0.00 / mixed_ref=1 / me_range=24 / chroma_me=1 / trellis=2 / 8x8dct=1 / cqm=0 / deadzone=21,11 / fast_pskip=1 / chroma_qp_offset=-2 / threads=8 / lookahead_threads=1 / sliced_threads=0 / nr=0 / decimate=1 / interlaced=0 / bluray_compat=0 / constrained_intra=0 / fgo=0 / bframes=9 / b_pyramid=2 / b_adapt=2 / b_bias=0 / direct=1 / weightb=1 / open_gop=0 / weightp=2 / keyint=240 / keyint_min=24 / scenecut=40 / intra_refresh=0 / rc=crf / mbtree=0 / crf=18.5 / qcomp=0.72 / qpmin=0 / qpmax=69 / qpstep=4 / ip_ratio=1.40 / pb_ratio=1.30 / aq=1:0.85Language : JapaneseDefault : YesForced : NoColor range : LimitedColor primaries : BT.709Transfer characteristics : BT.709Matrix coefficients : BT.709

Audio #1ID : 2Format : AACFormat/Info : Advanced Audio CodecFormat profile : LCCodec ID : A_AACDuration : 24 minBit rate : 192 kb/sChannel(s) : 2 channelsChannel positions : Front: L RSampling rate : 48.0 kHzFrame rate : 46.875 FPS (1024 spf)Compression mode : LossyDelay relative to video : 9 msStream size : 33.0 MiB (9%)Title : KingMaster & MilirinaLanguage : RussianDefault : YesForced : No

Audio #2ID : 3Format : AACFormat/Info : Advanced Audio CodecFormat profile : LCCodec ID : A_AACDuration : 24 minBit rate : 192 kb/sChannel(s) : 2 channelsChannel positions : Front: L RSampling rate : 48.0 kHzFrame rate : 46.875 FPS (1024 spf)Compression mode : LossyStream size : 32.8 MiB (9%)Title : OriginalLanguage : JapaneseDefault : NoForced : No

Text #1ID : 4Format : ASSCodec ID : S_TEXT/ASSCodec ID/Info : Advanced Sub Station AlphaDuration : 23 minBit rate : 187 b/sCount of elements : 424Compression mode : LosslessStream size : 32.8 KiB (0%)Title : Sovet Romantica (Full)Language : RussianDefault : NoForced : No

Text #2ID : 5Format : ASSCodec ID : S_TEXT/ASSCodec ID/Info : Advanced Sub Station AlphaDuration : 23 minBit rate : 11 b/sCount of elements : 19Compression mode : LosslessStream size : 2.02 KiB (0%)Title : Sovet RomanticaLanguage : RussianDefault : YesForced : No
</div>
</div>

Трекер:  [ 05-Апр-2017 21:30 ]

  

Скачать .torrent

Размер .torrent файла 14 KB


Размер: 353 MB
Хэш (hash) релиза: 1ab30a2c1cfe2c604ac57aa23088d84b3674b88d
Подписка на обновления:

Еще никто не оставлял запись к записи скачать торрент Хроники Акаши — худшего магического преподавателя Rokudenashi Majutsu Koushi to Akashic Records . Будь первым!

!Обратная связь