Скачать через торрент Ангельский Дуэт: Прорыв Twin Angel Break бесплатно Аниме Все серии на русском torrent

Если у вас наблюдаются проблемы со скриншотами, переходом по ссылками, скачиванием торрентов - проблемы в блокировщике рекламы AdBlock. #хорошегоДня!


Статистика раздачи
Размер:  458 MB   |    Зарегистрирован:  8 месяцев   |    .torrent скачан:  22 раза   |   
Раздают:  1  
   
Загрузка...
 
Автор Сообщение

Galfimbul

avatar Galfimbul



Ангельский Дуэт: Прорыв / Twin Angel Break / ツインエンジェルBreak
Год выпуска: 2017 г.
Страна: Япония
Жанр: Махо-сёдзё, Комедия
Тип: TV
Продолжительность: 12 эп. по 25 мин.
Режиссер: Ивасаки Ёсиаки
Студия: J.C. Staff
Озвучка:

Двухголосая от (муж/жен) Lonely Dragon & Oni (AniDub)
Описание:
Однажды девочка по имени Амацуки Мегуру столкнулась в своей жизни с трудной ситуацией, которая требовала отваги и решимости. Она увидела, как в океане тонет ребёнок, но ничего не смогла с собой поделать и лишь наблюдала за тем, как пучина затягивает малыша. Вдруг, откуда ни возьмись, прилетают две девушки, спасают ребёнка и так же безмолвно исчезают. Мегуру восхитилась их силой и твёрдо решила - однажды она, во что бы то ни стало, тоже станет героиней, как и смелые девушки.

Внезапно ей приходит приглашение в Токио, в школу по обмену. Удивлённая, но радостная Мегуру быстро пакует вещички и приезжает в город своей мечты. В классе все отнеслись к ней доброжелательно, лишь только угрюмая девочка по имени Сумирэ никак не хочет обращать на Мегуру внимание. Мегуру предвкушает насыщенную столичную жизнь, и испытание не заставляет себя долго ждать! Её одноклассники попадают в беду, и теперь Мегуру нужно стать героиней, ангелом-близнецом, чтобы спасти их. Но кто же окажется вторым ангелом-близнецом? Приключения начинаются!
Информационные ссылки: World Art || AniDB || MAL
Качество: HDTVRip | Рип: [Leopard-Raws]
Тип релиза: Без хардсаба
Формат видео: MP4
Наличие линковки: Нет
Видео: AVC, 1280x720, 2280 kbps, 23.976 fps [8 bit]
Аудио:
1. Russian AC3, 48.0 KHz, 192 kbps, 2 ch (внешние) - [AniDub];
2. Japanese AAC, 48.0 KHz, 192 kbps, 2 ch;
Субтитры:

Russian: ASS, внешние;
General Format : MPEG-4 Format profile : Base Media Codec ID : isom File size : 425 MiB Duration : 23mn 59s Overall bit rate mode : Variable Overall bit rate : 2 475 Kbps Encoded date : UTC 2017-04-08 03:59:42 Tagged date : UTC 2017-04-08 03:59:42 Video #1 ID : 1 Format : AVC Format/Info : Advanced Video Codec Format profile : High@L4.1 Format settings, CABAC : Yes Format settings, ReFrames : 4 frames Codec ID : avc1 Codec ID/Info : Advanced Video Coding Duration : 23mn 59s Bit rate : 2 280 Kbps Maximum bit rate : 13.7 Mbps Width : 1 280 pixels Height : 720 pixels Display aspect ratio : 16:9 Frame rate mode : Constant Frame rate : 23.976 fps Color space : YUV Chroma subsampling : 4:2:0 Bit depth : 8 bits Scan type : Progressive Bits/(Pixel*Frame) : 0.103 Stream size : 391 MiB (92%) Title : 264:fps=23.976@GPAC0.5.2-DEV-rev376-g5eeb74d-master Writing library : x264 core 129 r2245+729M 1a52e03 Encoding settings : cabac=1 / ref=4 / deblock=1:1:-1 / analyse=0x3:0x113 / me=umh / subme=9 / psy=1 / fade_compensate=0.00 / psy_rd=1.00:0.00 / mixed_ref=1 / me_range=24 / chroma_me=1 / trellis=2 / 8x8dct=1 / cqm=0 / deadzone=21,11 / fast_pskip=1 / chroma_qp_offset=-2 / threads=8 / lookahead_threads=1 / sliced_threads=0 / nr=0 / decimate=1 / interlaced=0 / bluray_compat=0 / constrained_intra=0 / fgo=0 / bframes=9 / b_pyramid=2 / b_adapt=2 / b_bias=0 / direct=1 / weightb=1 / open_gop=0 / weightp=2 / keyint=240 / keyint_min=24 / scenecut=40 / intra_refresh=0 / rc=crf / mbtree=0 / crf=18.5 / qcomp=0.72 / qpmin=0 / qpmax=69 / qpstep=4 / ip_ratio=1.40 / pb_ratio=1.30 / aq=1:0.85 Encoded date : UTC 2017-04-08 03:59:42 Tagged date : UTC 2017-04-08 03:59:45 Color primaries : BT.709 Transfer characteristics : BT.709 Matrix coefficients : BT.709 Audio #2 ID : 2 Format : AAC Format/Info : Advanced Audio Codec Format profile : LC Codec ID : 40 Duration : 23mn 59s Bit rate mode : Variable Bit rate : 192 Kbps Maximum bit rate : 228 Kbps Channel(s) : 2 channels Channel positions : Front: L R Sampling rate : 48.0 KHz Compression mode : Lossy Stream size : 32.9 MiB (8%) Language : Japanese Encoded date : UTC 2017-04-07 16:07:22 Tagged date : UTC 2017-04-08 03:59:45

01. The 15-Year-Old Sets Sail


Трекер:  [ 10-Апр-2017 13:30 ]

  

Скачать .torrent

Размер .torrent файла 18 KB


Размер: 458 MB
Хэш (hash) релиза: 1216e9a8c89b6231b1d57e30b64fe12c678604ba
Подписка на обновления:

Торренты, похожие на Ангельский Дуэт: Прорыв Twin Angel Break скачать торрент

Форум Название Автор Размер S L Добавлен
Аниме | HD Rips ·· Ангельский Дуэт: Прорыв / Twin Angel Break [TV] [01-08 из 12] [Без хардсаба] [RUS(ext), JAP] [2017, Махо-сёдзё, Комедия, HDTVRip] [720p] Galfimbul 37424439803.49 GB 0 0 1496965370

02:42

9-Июн-17

Еще никто не оставлял запись к записи скачать торрент Ангельский Дуэт: Прорыв Twin Angel Break . Будь первым!

!Обратная связь