Скачать через торрент Фарго Fargo Фильм бесплатно в хорошем качестве torrent

Скачивайте на UnionPeer.org фильмы через торрент без регистрации. Новинки кино в хорошем качестве через торрент. На UnionPeer.org можно скачать через торрент фильмы 2014 и 2015 годов. Самые новые фильмы.

Скачать торрент Фарго Fargo бесплатно через .torrent фильм мультфильм сериал

Если у вас наблюдаются проблемы со скриншотами, переходом по ссылками, скачиванием торрентов - проблемы в блокировщике рекламы AdBlock. #хорошегоДня!


Статистика раздачи
Размер:  862 MB   |    Зарегистрирован:  7 месяцев   |    .torrent скачан:  76 раз   |   
Раздают:  1  
   
Загрузка...
 
Автор Сообщение

Galfimbul

avatar Galfimbul


Фарго / Fargo

Год выпуска: 2017
Страна: США
Жанр: Драма, криминал
Продолжительность: 00:50:00
Перевод: Профессиональный (многоголосый закадровый) NewStudio
Режиссёр: Мэтт Шекман, Скотт Уинант, Адам Бернштейн
В ролях: Юэн Макгрегор, Кэрри Кун, Мэри Элизабет Уинстэд, Джим Гэффиган, Дэвид Тьюлис, Майкл Сталберг, Скут Макнэйри, Ши Уигхэм, Каран Сони, Фред Меламед, Томас Манн
Описание: Третий том знаменитой антологии человеческих глупостей и их бесчеловечных последствий открывается сценой в Восточном Берлине в 1988 году. За столом пустой комнаты сидит офицер «Штази», а за окном идет снег, и жирные черные тени от него нарисованы так, чтобы зритель сразу провел параллели с пеплом из концлагерей. На допрос приводят испуганного человека, который клянется, что его спутали с кем-то другим. Люди, оказавшиеся не в том месте не в то время; неправильно оценившие собеседника; неверно рассчитавшие свои силы; некстати поддавшиеся низменным инстинктам, — это все и есть «Фарго».
/ Сэмпл
Релиз группы:
Перевод: Юлия Мейер
Качество: WEBRip
Формат: AVI
Видео: 704x352 , 23.976 fps, XviD build 73, 1486 Kbps, 0.25 bit/pixel
Аудио 1: MPEG Layer 3, 48.0 KHz, 2 ch, 128 Kbps [Rus]
Аудио 2: MPEG Layer 3, 48.0 KHz, 2 ch, 128 Kbps [Eng]
Субтитры: Отсутствуют
Реклама: Без рекламы. Отсутствует
General
Complete name : Downloads\Fargo (Season 03) NewStudio\Fargo.s03e01.WEBRip.XviD.Rus.Eng.NewStudio.avi
Format : AVI
Format/Info : Audio Video Interleave
File size : 862 MiB
Duration : 1h 8mn
Overall bit rate : 1 756 Kbps
Writing application : VirtualDubMod 1.5.10.3 | www.virtualdub-fr.org || (build 2550/release)
Writing library : VirtualDubMod build 2550/release
Video #0
ID : 0
Format : MPEG-4 Visual
Format profile : Advanced Simple@L5
Format settings, BVOP : 1
Format settings, QPel : No
Format settings, GMC : No warppoints
Format settings, Matrix : Default (MPEG)
Codec ID : XVID
Codec ID/Hint : XviD
Duration : 1h 8mn
Bit rate : 1 486 Kbps
Width : 704 pixels
Height : 352 pixels
Display aspect ratio : 2.000
Frame rate : 23.976 fps
Color space : YUV
Chroma subsampling : 4:2:0
Bit depth : 8 bits
Scan type : Progressive
Compression mode : Lossy
Bits/(Pixel*Frame) : 0.250
Stream size : 729 MiB (85%)
Writing library : XviD 73
Audio #1
ID : 1
Format : MPEG Audio
Format version : Version 1
Format profile : Layer 3
Mode : Joint stereo
Mode extension : MS Stereo
Codec ID : 55
Codec ID/Hint : MP3
Duration : 1h 8mn
Bit rate mode : Constant
Bit rate : 128 Kbps
Channel(s) : 2 channels
Sampling rate : 48.0 KHz
Compression mode : Lossy
Stream size : 62.8 MiB (7%)
Alignment : Aligned on interleaves
Interleave, duration : 42 ms (1.00 video frame)
Interleave, preload duration : 504 ms
Audio #2
ID : 2
Format : MPEG Audio
Format version : Version 1
Format profile : Layer 3
Mode : Joint stereo
Mode extension : MS Stereo
Codec ID : 55
Codec ID/Hint : MP3
Duration : 1h 8mn
Bit rate mode : Constant
Bit rate : 128 Kbps
Channel(s) : 2 channels
Sampling rate : 48.0 KHz
Compression mode : Lossy
Stream size : 62.8 MiB (7%)
Alignment : Aligned on interleaves
Interleave, duration : 42 ms (1.00 video frame)
Interleave, preload duration : 504 ms


Трекер:  [ 21-Апр-2017 13:00 ]

  

Скачать .torrent

Размер .torrent файла 17 KB


Размер: 862 MB
Хэш (hash) релиза: 80827f156e691a7d0cfc3fd4e5b993fcaa96efa5
Подписка на обновления:

Торренты, похожие на Фарго Fargo скачать торрент

Форум Название Автор Размер S L Добавлен
Зарубежные сериалы ·· Фарго / Fargo / Сезон 3 / Серии 1 из 10 (Ной Хоули) [2017, драма, криминал, WEBRip 1080p] MVO (DD 5.1 Первый канал) + Original (Eng) + Subs (Rus, Eng) Galfimbul 75632988627.04 GB 0 0 1493140823

20:20

25-Апр-17

Зарубежные сериалы ·· Фарго / Fargo / Сезон: 3 / Серии: 1 из 10 (Майкл Аппендаль, Ной Хоули, Майк Баркер) [2017, США, Драма, криминал, WEBRip 720p] MVO (Первый канал) + Original Galfimbul 21514615152 GB 0 0 1492930144

09:49

23-Апр-17

Зарубежные сериалы ·· Фарго / Fargo / Сезон: 3 / Серии: 1 из 10 (Майкл Аппендаль, Ной Хоули, Майк Баркер) [2017, США, драма, криминал, WEB-DLRip] MVO (LostFilm) Galfimbul 844455936805 MB 0 0 1492897611

00:46

23-Апр-17

Зарубежные сериалы ·· Фарго / Fargo / Сезон: 3 / Серии: 1 из 10 (Ной Хоули) [2017, США, криминал, драма, WEB-DL 720p] DVO (Gears Media) + Original Galfimbul 24348698662.27 GB 0 0 1492806457

23:27

21-Апр-17

Зарубежные сериалы ·· Фарго / Fargo / Сезон: 3 / Серии: 1-3 из 10 (Мэтт Шекман, Скотт Уинант, Адам Бернштейн) [2017, США, Драма, криминал, WEB-DL 1080p] MVO (LostFilm) Original + Eng Subs Galfimbul 67136921466.25 GB 0 0 1494057150

10:52

6-Май-17

Зарубежные сериалы ·· Фарго / Fargo / Сезон: 3 / Серии: 1-7 из 10 (Мэтт Шекман, Скотт Уинант, Адам Бернштейн) [2017, США, Драма, криминал, WEBRip] MVO (NewStudio) + Original Galfimbul 49236930564.59 GB 2 0 1497033984

21:46

9-Июн-17

Зарубежные сериалы ·· Фарго / Fargo / Сезон: 3 / Серии: 1-7 из 10 (Ной Хоули) [2017, США, криминал, драма, WEB-DL 720p] DVO (Gears Media) + Original Galfimbul 1357927788712.65 GB 0 0 1496950358

22:32

8-Июн-17

Зарубежные сериалы ·· Фарго / Fargo / Сезон: 3 / Серии: 1-6 из 10 (Мэтт Шекман, Скотт Уинант, Адам Бернштейн) [2017, США, Драма, криминал, WEBDL 1080p] MVO (NewStudio) + Original Galfimbul 1317240146712.27 GB 0 0 1495983058

17:50

28-Май-17

Зарубежные сериалы ·· Фарго / Fargo / Сезон: 3 / Серии: 1-4 из 10 (Мэтт Шекман, Скотт Уинант, Адам Бернштейн) [2017, США, Драма, криминал, WEBRip 720p] DVO (Кубик в Кубе) Original + Eng Subs Galfimbul 73055099276.8 GB 0 0 1495129263

20:41

18-Май-17

Зарубежные сериалы ·· Фарго / Fargo / Сезон: 3 / Серии: 1-2 из 10 (Мэтт Шекман, Скотт Уинант, Адам Бернштейн) [2017, США, Драма, криминал, WEB-DL 1080p] MVO (Alternative Production) + Original Galfimbul 47643377574.44 GB 0 0 1493761916

00:51

3-Май-17

Зарубежные сериалы ·· Фарго / Fargo / Сезон: 3 / Серии: 1-2 из 10 (Мэтт Шекман, Скотт Уинант, Адам Бернштейн) [2017, США, Драма, криминал, WEBRip 720p] MVO ( LostFilm) + Original Galfimbul 47643568194.44 GB 0 0 1493477153

17:45

29-Апр-17

Зарубежные сериалы ·· Фарго / Fargo / Сезон: 3 / Серии: 1-2 из 10 (Ной Хоули) [2017, США, криминал, драма, WEB-DLRip] DVO (Gears Media) + Original Galfimbul 805385954768 MB 0 0 1493360354

09:19

28-Апр-17

Зарубежные сериалы ·· Фарго / Fargo / Сезон: 3 / Серии: 1-2 из 10 (Мэтт Шекман, Скотт Уинант, Адам Бернштейн) [2017, США, Драма, криминал, WEBRip 720p] MVO (NewStudio) + Original Galfimbul 41887105333.9 GB 0 0 1493336730

02:45

28-Апр-17

Еще никто не оставлял запись к записи скачать торрент Фарго Fargo . Будь первым!

!Обратная связь