Скачать через торрент Герой Юки Юна: Глава Васио Суми Yuuki Yuuna wa Yuusha de Aru: Washio Sumi no Shou бесплатно Аниме Все серии на русском torrent

Если у вас наблюдаются проблемы со скриншотами, переходом по ссылками, скачиванием торрентов - проблемы в блокировщике рекламы AdBlock. #хорошегоДня!


Статистика раздачи
Размер:  1.76 GB   |    Зарегистрирован:  7 месяцев   |    .torrent скачан:  32 раза   |   
Раздают:  1  
   
Загрузка...
 
Автор Сообщение

Galfimbul

avatar Galfimbul


Герой Юки Юна: Глава Васио Суми / Yuuki Yuuna wa Yuusha de Aru: Washio Sumi no Shou

Страна: Япония
Год выпуска: 2017
Жанр: приключения, драма, фэнтези
Тип: Movie
Продолжительность: 1 фильм, ~45 мин.
Режиссер: Киси Сэйдзи, Фукуока Мотоо
Студия: Studio Gokumi

Описание: Предыстория основного сериала, в котором рассказывается о прошлом одной из главных героинь. Фильм повествует о предыдущем поколении избранных Синдзю.

Качество: BDRip (Anime Land)
Тип релиза: Без хардсаба
Формат видео: MKV
Видео: AVC (10 bit), 1280x720, 4829 kbps, 23.976 fps
Аудио: AAC, 320 kbps, 48.0 kHz, 2 ch Язык Японский
Аудио 2: AAC, 126 kbps, 48.0 KHz, 2 ch Язык Русский (внешним файлом) ; Озвучка: одноголосая (жен.), Aska
от
...5393777
-720p
GeneralUnique ID : 250698211223540652090725241585279257820 (0xBC9AB81D7D4CAC9BB0FB03C167914CDC)Complete name : D:\Фильмы\Аниме\Yuuki Yuuna wa Yuusha de Aru\Yuuki Yuuna wa Yuusha de Aru - Washio Sumi no Shou Movie [BD] [720p]\[Anime Land] Yuuki Yuuna wa Yuusha de Aru - Washio Sumi no Shou Movie - Tomodachi [01] [BDRip, 720p, AAC].mkvFormat : MatroskaFormat version : Version 4 / Version 2File size : 1.72 GiBDuration : 47 min 44 sOverall bit rate : 5 151 kb/sEncoded date : UTC 2017-04-26 14:34:34Writing application : mkvmerge v11.0.0 ('Alive') 64bitWriting library : libebml v1.3.4 + libmatroska v1.4.5

VideoID : 1Format : AVCFormat/Info : Advanced Video CodecFormat profile : High 10@L5Format settings, CABAC : YesFormat settings, ReFrames : 16 framesCodec ID : V_MPEG4/ISO/AVCDuration : 47 min 44 sBit rate : 4 829 kb/sWidth : 1 280 pixelsHeight : 720 pixelsDisplay aspect ratio : 16:9Frame rate mode : ConstantFrame rate : 23.976 (24000/1001) FPSColor space : YUVChroma subsampling : 4:2:0Bit depth : 10 bitsScan type : ProgressiveBits/(Pixel*Frame) : 0.219Stream size : 1.61 GiB (94%)Writing library : x264 core 148 r2721kMod 72d53abEncoding settings : cabac=1 / ref=16 / deblock=1:-1:-1 / analyse=0x3:0x133 / me=umh / subme=10 / psy=1 / fade_compensate=0.00 / psy_rd=1.00:0.15 / mixed_ref=1 / me_range=24 / chroma_me=1 / trellis=2 / 8x8dct=1 / cqm=0 / deadzone=21,11 / fast_pskip=0 / chroma_qp_offset=-3 / threads=18 / lookahead_threads=4 / sliced_threads=0 / nr=0 / decimate=1 / interlaced=0 / bluray_compat=0 / constrained_intra=0 / fgo=0 / bframes=16 / b_pyramid=2 / b_adapt=2 / b_bias=0 / direct=3 / weightb=1 / open_gop=0 / weightp=2 / keyint=250 / keyint_min=23 / scenecut=40 / intra_refresh=0 / rc_lookahead=60 / rc=crf / mbtree=1 / crf=14.0000 / qcomp=0.90 / qpmin=0 / qpmax=81 / qpstep=4 / ip_ratio=1.40 / aq=2:1.00Language : JapaneseDefault : YesForced : No

AudioID : 2Format : AACFormat/Info : Advanced Audio CodecFormat profile : LCCodec ID : A_AACDuration : 47 min 44 sBit rate : 320 kb/sChannel(s) : 2 channelsChannel positions : Front: L RSampling rate : 48.0 kHzFrame rate : 46.875 FPS (1024 spf)Compression mode : LossyStream size : 109 MiB (6%)Language : JapaneseDefault : YesForced : No
01. Подруги
02. Душа
03. Обещание


Трекер:  [ 27-Апр-2017 08:00 ]

  

Скачать .torrent

Размер .torrent файла 18 KB


Размер: 1.76 GB
Хэш (hash) релиза: 86937ad32068c81d3aef15bb0d3d544927243571
Подписка на обновления:

Торренты, похожие на Герой Юки Юна: Глава Васио Суми Yuuki Yuuna wa Yuusha de Aru: Washio Sumi no Shou скачать торрент

Форум Название Автор Размер S L Добавлен
Аниме | HD Rips ·· Герой Юки Юна: Глава Васио Суми / Yuuki Yuuna wa Yuusha de Aru: Washio Sumi no Shou [TV] [Без хардсаба] [1 из 6] [JAP+SUB] [2017, повседневность, драма, фэнтези, WEBRip] [720p] Galfimbul 388296939370 MB 0 0 1507708919

11:01

11-Окт-17

Аниме | HD Rips ·· Герой Юки Юна: Глава Васио Суми / Yuuki Yuuna wa Yuusha de Aru: Washio Sumi no Shou [Movie] [1 из 3] [Без хардсаба] [RUS(ext), JAP] [2017, приключения, драма, фэнтези, BDRip] [1080p] Galfimbul 44755217644.17 GB 0 0 1501925477

12:31

5-Авг-17

Еще никто не оставлял запись к записи скачать торрент Герой Юки Юна: Глава Васио Суми Yuuki Yuuna wa Yuusha de Aru: Washio Sumi no Shou . Будь первым!

!Обратная связь