Скачать через торрент Кейджо!!!!!!!! Keijo!!!!!!!! бесплатно Аниме Все серии на русском torrent

Если у вас наблюдаются проблемы со скриншотами, переходом по ссылками, скачиванием торрентов - проблемы в блокировщике рекламы AdBlock. #хорошегоДня!


Статистика раздачи
Размер:  18.76 GB   |    Зарегистрирован:  7 месяцев   |    .torrent скачан:  24 раза   |   
Раздают:  1  
   
Загрузка...
 
Автор Сообщение

Galfimbul

avatar Galfimbul


Кейджо!!!!!!!!
Keijo!!!!!!!!
競女!!!!!!!!

Страна: Япония
Год выпуска: 2016 г.
Жанр: комедия, спорт, сёнэн, этти
Тип: TV
Продолжительность: 12 эп. по ~24 мин.
Режиссер: Такахаси Хидэя
Студия:
Русские субтитры: AOS Team
Перевод: FooBoo, Makentosh, Хаттори, Bourbonice
Редактура: Хаттори
Русские субтитры: SovetRomantica
Перевод: Несущий Ересь
Редактор/Тайм-код/Оформление: Xander
Описание: В центре картины находится Каминаши Нозоми. Ей семнадцать лет, занимается гимнастикой, считается очень способной спортсменкой. Все спортивные колледжи пытаются завербовать её себе. К несчастью для них, у Нозоми свои планы. Самое главное в её жизни сейчас - деньги, так как её семья испытывает сильные финансовые трудности. И она считает, что в гимнастике много не заработаешь, да и, к тому же, риски получить сильную травму слишком высоки, а вместе с травмой придет конец и её карьере.

Поэтому она решает вступить в мир "Кейджо". В "Кейджо" девушки находятся на маленькое плавучей платформе и соревнуются друг с другом. Цель проста - вытолкнуть с платформы в воду соперниц, но толкаться можно только грудью или пятой точкой. Именно за эти правила и полюбился данный вид спорта японским зрителям. Сможет ли Нозоми погрузиться в этот взрослый и развратный мир Кейджо? Сможет ли она стать известной? Сможет ли она заработать высокие награды и принести благополучие в свою семью? Узнаете уже совсем скоро!
Информационные ссылки: AniDB | MyAnimeList | World Art
Качество: BDRip
Тип релиза: Без хардсаба
Формат видео: MKV
Наличие линковки: Нет
Релиз/Автор рипа: DJATOM [Beatrice-Raws]
Видео: x264, Hi10p, 1920x1080, ~15854 Kbps, 23.976 fps
Аудио JAP: FLAC, 48000 Hz, ~1514 Kbps, 2 ch
Субтитры RUS 1-2: ASS, внешним файлом
<div class="sp-wrap">
<div class="sp-head folded">MediaInfo</div>
<div class="sp-body">

Формат : MatroskaВерсия формата : Version 4 / Version 2Размер файла : 2,88 ГбайтПродолжительность : 23 м. 43 с.Режим общего битрейта : ПеременныйОбщий поток : 17,4 Мбит/секДата кодирования : UTC 2017-01-13 06:25:57Программа кодирования : mkvmerge v8.2.0 ('World of Adventure') 64bitБиблиотека кодирования : libebml v1.3.1 + libmatroska v1.4.2

ВидеоИдентификатор : 1Формат : AVCФормат/Информация : Advanced Video CodecПрофиль формата : High 10@L5Параметр CABAC формата : ДаПараметр ReFrames формата : 4 кадраИдентификатор кодека : V_MPEG4/ISO/AVCПродолжительность : 23 м. 43 с.Битрейт : 15,9 Мбит/секШирина : 1920 пикселейВысота : 1080 пикселейСоотношение сторон : 16:9Режим частоты кадров : ПостоянныйЧастота кадров : 23,976 (24000/1001) кадра/секЦветовое пространство : YUVСубдискретизация насыщенности : 4:2:0Битовая глубина : 10 битТип развёртки : ПрогрессивнаяБит/(Пиксели*Кадры) : 0.319Размер потока : 2,63 Гбайт (91%)Заголовок : BDRip by DJATOMБиблиотека кодирования : x264 core 148 r2597M e86f3a1 (DJATOM's build)Настройки программы : cabac=1 / ref=4 / deblock=1:1:-1 / analyse=0x3:0x113 / me=umh / subme=9 / psy=1 / fade_compensate=0.00 / psy_rd=1.00:0.00 / mixed_ref=1 / me_range=32 / chroma_me=1 / trellis=2 / 8x8dct=1 / cqm=0 / deadzone=21,11 / fast_pskip=1 / chroma_qp_offset=-2 / threads=34 / lookahead_threads=5 / sliced_threads=0 / nr=0 / decimate=1 / interlaced=0 / bluray_compat=0 / constrained_intra=0 / bframes=9 / b_pyramid=2 / b_adapt=2 / b_bias=0 / direct=1 / weightb=1 / open_gop=0 / weightp=2 / keyint=250 / keyint_min=23 / scenecut=40 / intra_refresh=0 / rc=crf / mbtree=0 / crf=15.0000 / qcomp=0.72 / qpmin=0 / qpmax=81 / qpstep=4 / ip_ratio=1.40 / pb_ratio=1.30 / aq=1:0.85Язык : JapaneseDefault : ДаForced : НетЦветовой диапазон : LimitedОсновные цвета : BT.709Характеристики трансфера : BT.709Коэффициенты матрицы : BT.709

АудиоИдентификатор : 2Формат : FLACФормат/Информация : Free Lossless Audio CodecИдентификатор кодека : A_FLACПродолжительность : 23 м. 43 с.Вид битрейта : ПеременныйБитрейт : 1514 Кбит/секКаналы : 2 каналаРасположение каналов : Front: L RЧастота : 48,0 КГцЧастота кадров : 11,719 кадров/сек (4096 spf)Битовая глубина : 24 битРазмер потока : 257 Мбайт (9%)Заголовок : LPCM->FLACБиблиотека кодирования : libFLAC 1.3.1 (UTC 2014-11-25)Язык : JapaneseDefault : ДаForced : Нет

Меню00:00:00.000 : en:Avant00:01:15.992 : en:OP00:02:46.040 : en:Part A00:12:41.051 : en:Part B00:22:06.033 : en:ED00:23:36.039 : en:Next
Duration: 00:23:43 (1423.09) Track #1: video (BDRip by DJATOM) lang: jpn (2) codc: V_MPEG4/ISO/AVC -> H264/AVC (22) reso: 1920x1080 -> 16:9 fram: 23.976 fps rate: 15854 kbps (15854) dura: 00:23:43 (1423.05) size: 2.63 GB (2820119937) Track #2: audio (LPCM->FLAC) lang: jpn -> Japanese (2) codc: A_FLAC -> Other (15) chan: 2 -> Stereo samp: 48000 Hz rate: 1515 kbps (1514.51) dura: 00:23:42 (1422.42) size: 256.81 MB (269283589) Sizes: (check sanity) disk: 2.88 GB (3089744749) trac: 2.88 GB (3089403526) [based on track size] bitr: 2.88 GB (3089521886) [based on bitrate] tdif: 333.23 KB (341223) 0.01% bdif: 217.64 KB (222862) 0.00%
</div>
</div>
01. Setouchi Keijo Training School!!!!
02. The Hip Toss Brings Us Together!!!!
03. Vacuum Butt Cannon!!!!
04. The Battle for the Fastest Butt!!!!
05. Full-Auto Cerberus!!!!
06. Alluring Kyoto Trip!!!!

...5294455
BDRip



Трекер:  [ 01-Май-2017 18:00 ]

  

Скачать .torrent

Размер .torrent файла 33 KB


Размер: 18.76 GB
Хэш (hash) релиза: a324e089de5a398faebb6940c097c52a021cea86
Подписка на обновления:

Торренты, похожие на Кейджо!!!!!!!! Keijo!!!!!!!! скачать торрент

Форум Название Автор Размер S L Добавлен
Аниме | HD Rips ·· Кейджо!!!!!!!! / Keijo!!!!!!!! / Кейдзо!!!!!!!! [TV] [01-06 из 12] [Без хардсаба] [JAP+SUB] [2016, комедия, спорт, сёнэн, этти, BDRip] [720p] Galfimbul 43284110744.03 GB 0 0 1493654843

19:07

1-Май-17

Еще никто не оставлял запись к записи скачать торрент Кейджо!!!!!!!! Keijo!!!!!!!! . Будь первым!

!Обратная связь