Скачать через торрент Сброс Сакурады Sakurada Reset бесплатно Аниме Все серии на русском torrent

Если у вас наблюдаются проблемы со скриншотами, переходом по ссылками, скачиванием торрентов - проблемы в блокировщике рекламы AdBlock. #хорошегоДня!


Статистика раздачи
Размер:  1.16 GB   |    Зарегистрирован:  7 месяцев   |    .torrent скачан:  25 раз   |   
Раздают:  1  
   
Загрузка...
 
Автор Сообщение

Galfimbul

avatar Galfimbul


Сброс Сакурады
Sakurada Reset
Sagrada Reset
サクラダリセット

Страна: Япония
Год выпуска: 2017 г.
Жанр: детектив, мистика, школа
Тип: TV
Продолжительность: 24 эп. по 25 мин. 30 сек.
Режиссер: Кавацура Синъя
Студия: <hr class="post-hr">Русские субтитры: LeDi-MaHo Team
Переводчик/Перевод песен/Оформление: MantisFL
Редактор/Тайм-код: Holydarkness
QC: Tousaka Jun<hr class="post-hr">Озвучивание: двухголосое (жен./муж.) от Eladiel & Mistake (Onibaku Group)<hr class="post-hr">Описание: В Сакураде, маленьком городке на берегу Тихого океана, живут довольно необычные люди. Примерно у половины обитателей этого населённого пункта имеются в арсенале паранормальные способности. Во избежание беспорядков, все люди, наделённые таким даром, находятся под управлением правительственной организации "База Администрации”. И чем сильнее способность, тем пристальнее правительство следит за человеком. Хотя, из-за большого процента особых жителей, остальные уже не обращают внимания на подобные причуды.

Харуки Мисора и Асаи Кей учатся в старшей школе, а свободное время проводят в школьном исполнительном клубе, который напрямую связан с "Базой Администрации”. Ребята получают запросы и исполняют их с помощью своих особых сил. Правда методы у них весьма кардинальные. Для выполнения поставленных задач Харуки стирает все события, произошедшие за последние три дня во всём мире, а Кей в свою очередь запоминает их. В очередной раз им поступает запрос вернуть погибшую кошку. Мисора и Кей с радостью берутся, считая, что это никому не повредит. Но действительно ли это так?<hr class="post-hr">Информационные ссылки: AniDB | MyAnimeList | World Art<hr class="post-hr">Качество: HDTVRip
Тип релиза: Без хардсаба
Формат видео: MKV
Наличие линковки: Нет
Релиз/Автор рипа: Leopard-Raws
Видео: x264 (8 bit), 1280x720, ~1133 Kbps, 23.976 fps
Аудио RUS: AAC, 48000 Hz, ~192 Kbps, 2 ch (встроенная)
Аудио JAP: AAC, 48000 Hz, ~192 Kbps, 2 ch
Субтитры RUS: ASS, встроенные; надписи/полные
<div class="sp-wrap">
<div class="sp-head folded">MediaInfo</div>
<div class="sp-body">

Формат : MatroskaВерсия формата : Version 4 / Version 2Размер файла : 277 МбайтПродолжительность : 25 м. 29 с.Общий поток : 1518 Кбит/секДата кодирования : UTC 2017-04-27 16:10:40Программа кодирования : mkvmerge v10.0.0 ('To Drown In You') 64bitБиблиотека кодирования : libebml v1.3.4 + libmatroska v1.4.5

ВидеоИдентификатор : 1Формат : AVCФормат/Информация : Advanced Video CodecПрофиль формата : High@L4.1Параметр CABAC формата : ДаПараметр ReFrames формата : 4 кадраИдентификатор кодека : V_MPEG4/ISO/AVCПродолжительность : 25 м. 29 с.Битрейт : 1131 Кбит/секШирина : 1280 пикселейВысота : 720 пикселейСоотношение сторон : 16:9Режим частоты кадров : ПостоянныйЧастота кадров : 23,976 (24000/1001) кадра/секЦветовое пространство : YUVСубдискретизация насыщенности : 4:2:0Битовая глубина : 8 битТип развёртки : ПрогрессивнаяБит/(Пиксели*Кадры) : 0.051Размер потока : 206 Мбайт (75%)Библиотека кодирования : x264 core 129 r2245+729M 1a52e03Настройки программы : cabac=1 / ref=4 / deblock=1:1:-1 / analyse=0x3:0x113 / me=umh / subme=9 / psy=1 / fade_compensate=0.00 / psy_rd=1.00:0.00 / mixed_ref=1 / me_range=24 / chroma_me=1 / trellis=2 / 8x8dct=1 / cqm=0 / deadzone=21,11 / fast_pskip=1 / chroma_qp_offset=-2 / threads=8 / lookahead_threads=1 / sliced_threads=0 / nr=0 / decimate=1 / interlaced=0 / bluray_compat=0 / constrained_intra=0 / fgo=0 / bframes=9 / b_pyramid=2 / b_adapt=2 / b_bias=0 / direct=1 / weightb=1 / open_gop=0 / weightp=2 / keyint=240 / keyint_min=24 / scenecut=40 / intra_refresh=0 / rc=crf / mbtree=0 / crf=18.5 / qcomp=0.72 / qpmin=0 / qpmax=69 / qpstep=4 / ip_ratio=1.40 / pb_ratio=1.30 / aq=1:0.85Default : ДаForced : НетЦветовой диапазон : LimitedОсновные цвета : BT.709Характеристики трансфера : BT.709Коэффициенты матрицы : BT.709

Аудио #1Идентификатор : 2Формат : AACФормат/Информация : Advanced Audio CodecПрофиль формата : LCИдентификатор кодека : A_AACПродолжительность : 25 м. 29 с.Битрейт : 192 Кбит/секКаналы : 2 каналаРасположение каналов : Front: L RЧастота : 48,0 КГцЧастота кадров : 46,875 кадров/сек (1024 spf)Метод сжатия : С потерямиРазмер потока : 35,0 Мбайт (13%)Заголовок : Eladiel_MistakeЯзык : RussianDefault : ДаForced : Да

Аудио #2Идентификатор : 3Формат : AACФормат/Информация : Advanced Audio CodecПрофиль формата : LCИдентификатор кодека : A_AACПродолжительность : 25 м. 29 с.Битрейт : 192 Кбит/секКаналы : 2 каналаРасположение каналов : Front: L RЧастота : 48,0 КГцЧастота кадров : 46,875 кадров/сек (1024 spf)Метод сжатия : С потерямиРазмер потока : 34,9 Мбайт (13%)Заголовок : ОригиналЯзык : JapaneseDefault : НетForced : Нет

Текст #1Идентификатор : 4Формат : ASSИдентификатор кодека : S_TEXT/ASSИдентификатор кодека/Информация : Advanced Sub Station AlphaПродолжительность : 23 м. 48 с.Битрейт : 15 бит/секElementCount : 23Метод сжатия : Без потерьРазмер потока : 2,64 Кбайт (0%)Заголовок : НадписиЯзык : RussianDefault : ДаForced : Да

Текст #2Идентификатор : 5Формат : ASSИдентификатор кодека : S_TEXT/ASSИдентификатор кодека/Информация : Advanced Sub Station AlphaПродолжительность : 23 м. 48 с.Битрейт : 191 бит/секElementCount : 411Метод сжатия : Без потерьРазмер потока : 33,4 Кбайт (0%)Заголовок : ПолныеЯзык : RussianDefault : НетForced : Нет
</div>
</div>
<hr class="post-hr">
01. Memory in Children 1/3
02. Memory in Children 2/3
03. Cat, Ghost, and Revolution Sunday 1/2
04. Cat, Ghost, and Revolution Sunday 2/2
<hr class="post-hr">
...5384097
наличие озвучки
<hr class="post-hr">

Трекер:  [ 02-Май-2017 23:00 ]

  

Скачать .torrent

Размер .torrent файла 12 KB


Размер: 1.16 GB
Хэш (hash) релиза: e52460389b71f72e8ce90f916d337ccf3675c9ac
Подписка на обновления:

Торренты, похожие на Сброс Сакурады Sakurada Reset скачать торрент

Форум Название Автор Размер S L Добавлен
Аниме | HD Rips ·· Сброс Сакурады / Sakurada Reset / Sagrada Reset / Переустановка Сакурады / Перезапуск Сакурады [TV] [01-06 из 24] [Без хардсаба] [RUS(int), JAP+SUB] [2017, детектив, мистика, школа, HDTVRip] [720p] Galfimbul 18058550951.68 GB 0 0 1495191819

14:03

19-Май-17

Еще никто не оставлял запись к записи скачать торрент Сброс Сакурады Sakurada Reset . Будь первым!

!Обратная связь