Скачать через торрент музыку Мисима: Жизнь в четырёх главах Mishima: A Life in Four Chapters — Philip Glass — 1985, FLAC бесплатно без регистрации torrent

Если у вас наблюдаются проблемы со скриншотами, переходом по ссылками, скачиванием торрентов - проблемы в блокировщике рекламы AdBlock. #хорошегоДня!


Статистика раздачи
Размер:  228 MB   |    Зарегистрирован:  6 месяцев   |    .torrent скачан:  14 раз   |   
Раздают:  1  
   
Загрузка...
 
Автор Сообщение

Galfimbul

avatar Galfimbul


Mishima
Philip Glass
Жанр
: Score
Год выпуска диска: 1985
Производитель диска: США (Elektra/Asylum/Nonesuch Records)
Аудио кодек: FLAC
Тип рипа: tracks+.cue
Битрейт аудио: lossless
Продолжительность: 0:46:05
Треклист
:

01. MISHIMA / Opening 2:46
02. November 25: morning 4:11
03. 1934: grandmother & Kimitake 3:38
04. TEMPLE OF THE GOLDEN PAVILION (“like some enormous music”) 3:01
05. Osamu's Theme: KYOKO'S HOUSE 3:00
06. 1937: Saint Sebastian 1:07
07. KYOKO'S HOUSE (“stage blood is not enough”) 5:03
08. November 25: ICHIGAYA 2:14
09. 1957: award montage 3:57
10. RUNAWAY HORSES (“poetry written with a splash of blood”) 9:09
11. 1962: body building 1:30
12. November 25: THE LAST DAY 1:31
13. F-104: epilogue from SUN AND STEEL 1:58
14. MISHIMA / Closing 3:00
Лог отредактирован для публикации на форуме: удалены пути файлов ради анонимности в поисковиках. Внутри раздачи — исходный лог без изменений.

Exact Audio Copy V0.99 prebeta 4 from 23. January 2008

EAC extraction logfile from 26. February 2009, 22:25

Philip Glass / Mishima

Used drive : BENQ DVD DD DW1620 Adapter: 4 ID: 0

Read mode : SecureUtilize accurate stream : YesDefeat audio cache : YesMake use of C2 pointers : No

Read offset correction : 618Overread into Lead-In and Lead-Out : NoFill up missing offset samples with silence : YesDelete leading and trailing silent blocks : NoNull samples used in CRC calculations : YesUsed interface : Native Win32 interface for Win NT & 2000Gap handling : Appended to previous track

Used output format : User Defined EncoderSelected bitrate : 768 kBit/sQuality : HighAdd ID3 tag : NoCommand line compressor : C:\Program\Exact Audio Copy\FLAC\FLAC.EXEAdditional command line options : -6 -V -T "ARTIST=%a" -T "TITLE=%t" -T "ALBUM=%g" -T "DATE=%y" -T "TRACKNUMBER=%n" -T "GENRE=%m" -T "COMMENT=%e" %s -o %d

TOC of the extracted CD

Track | Start | Length | Start sector | End sector --------------------------------------------------------- 1 | 0:00.32 | 2:46.23 | 32 | 12504 2 | 2:46.55 | 4:11.35 | 12505 | 31364 3 | 6:58.15 | 3:37.65 | 31365 | 47704 4 | 10:36.05 | 3:01.17 | 47705 | 61296 5 | 13:37.22 | 2:59.43 | 61297 | 74764 6 | 16:36.65 | 1:07.27 | 74765 | 79816 7 | 17:44.17 | 5:02.45 | 79817 | 102511 8 | 22:46.62 | 2:14.10 | 102512 | 112571 9 | 25:00.72 | 3:57.23 | 112572 | 130369 10 | 28:58.20 | 9:08.70 | 130370 | 171539 11 | 38:07.15 | 1:29.42 | 171540 | 178256 12 | 39:36.57 | 1:30.50 | 178257 | 185056 13 | 41:07.32 | 1:58.30 | 185057 | 193936 14 | 43:05.62 | 2:59.55 | 193937 | 207416

Track 1

Filename C:\Documents and Settings\..\Philip Glass - Mishima\01 Mishima - Opening.wav

Pre-gap length 0:00:02.32

Peak level 98.8 % Track quality 100.0 % Test CRC 9A1A6866 Copy CRC 9A1A6866 Accurately ripped (confidence 2) [62469261] Copy OK

Track 2

Filename C:\Documents and Settings\..\Philip Glass - Mishima\02 November 25 - Morning.wav

Pre-gap length 0:00:02.05

Peak level 77.0 % Track quality 100.0 % Test CRC 18611025 Copy CRC 18611025 Accurately ripped (confidence 2) [B362BD91] Copy OK

Track 3

Filename C:\Documents and Settings\..\Philip Glass - Mishima\03 1934 - Grandmother & Kimitake.wav

Pre-gap length 0:00:02.05

Peak level 53.9 % Track quality 100.0 % Test CRC C0CA6266 Copy CRC C0CA6266 Accurately ripped (confidence 2) [7D17DA7F] Copy OK

Track 4

Filename C:\Documents and Settings\..\Philip Glass - Mishima\04 Temple of the Golden Pavilion ('like some enormous music').wav

Pre-gap length 0:00:03.20

Peak level 49.6 % Track quality 100.0 % Test CRC 52EAFE27 Copy CRC 52EAFE27 Accurately ripped (confidence 2) [A7266B2B] Copy OK

Track 5

Filename C:\Documents and Settings\..\Philip Glass - Mishima\05 Osamu's Theme - Kyoko's House.wav

Pre-gap length 0:00:02.31

Peak level 67.9 % Track quality 100.0 % Test CRC FB40C85F Copy CRC FB40C85F Accurately ripped (confidence 2) [51405FAA] Copy OK

Track 6

Filename C:\Documents and Settings\..\Philip Glass - Mishima\06 1937 - Saint Sebastian.wav

Pre-gap length 0:00:02.28

Peak level 27.7 % Track quality 100.0 % Test CRC 56F81440 Copy CRC 56F81440 Accurately ripped (confidence 2) [72A6DC4A] Copy OK

Track 7

Filename C:\Documents and Settings\..\Philip Glass - Mishima\07 Kyoko's House ('stage blood is not enough').wav

Pre-gap length 0:00:02.39

Peak level 78.0 % Track quality 100.0 % Test CRC F2CF57D1 Copy CRC F2CF57D1 Accurately ripped (confidence 2) [BBB48B46] Copy OK

Track 8

Filename C:\Documents and Settings\..\Philip Glass - Mishima\08 November 25 - Ichigaya.wav

Pre-gap length 0:00:02.65

Peak level 72.9 % Track quality 99.9 % Test CRC 4C88B9A7 Copy CRC 4C88B9A7 Accurately ripped (confidence 2) [7A7B0459] Copy OK

Track 9

Filename C:\Documents and Settings\..\Philip Glass - Mishima\09 1957 - Award Montage.wav

Pre-gap length 0:00:02.29

Peak level 61.0 % Track quality 100.0 % Test CRC D0480BE2 Copy CRC D0480BE2 Accurately ripped (confidence 2) [49FAD6C6] Copy OK

Track 10

Filename C:\Documents and Settings\..\Philip Glass - Mishima\10 Runaway Horses ('poetry written with a splash of blood').wav

Pre-gap length 0:00:03.55

Peak level 50.1 % Track quality 100.0 % Test CRC 2C423BB6 Copy CRC 2C423BB6 Accurately ripped (confidence 2) [55DEA222] Copy OK

Track 11

Filename C:\Documents and Settings\..\Philip Glass - Mishima\11 1962 - Body Building.wav

Pre-gap length 0:00:02.29

Peak level 61.7 % Track quality 100.0 % Test CRC 70A0BBF5 Copy CRC 70A0BBF5 Accurately ripped (confidence 2) [C8E22BBF] Copy OK

Track 12

Filename C:\Documents and Settings\..\Philip Glass - Mishima\12 November 25 - The Last Day.wav

Pre-gap length 0:00:02.34

Peak level 100.0 % Track quality 99.8 % Test CRC 01ECEE6F Copy CRC 01ECEE6F Accurately ripped (confidence 2) [04C10E73] Copy OK

Track 13

Filename C:\Documents and Settings\..\Philip Glass - Mishima\13 F-104 - Epilogue from Sun and Steel.wav

Pre-gap length 0:00:02.38

Peak level 40.7 % Track quality 100.0 % Test CRC 03C260B4 Copy CRC 03C260B4 Accurately ripped (confidence 2) [33CE2153] Copy OK

Track 14

Filename C:\Documents and Settings\..\Philip Glass - Mishima\14 Mishima - Closing.wav

Pre-gap length 0:00:03.61

Peak level 46.9 % Track quality 100.0 % Test CRC CA7BD9D5 Copy CRC CA7BD9D5 Accurately ripped (confidence 2) [AF01C7BE] Copy OK

All tracks accurately ripped

No errors occurred

End of status report
Спасибо Доброму Ангелу за «оживление» ссылки на постер (itrash.ru рили сакс), но я человек приземлённый, и ангельские Чудеса меня шокируют и подводят слишком близко к сумасшествию %\

Трекер:  [ 22-Май-2017 12:00 ]

  

Скачать .torrent

Размер .torrent файла 19 KB


Размер: 228 MB
Хэш (hash) релиза: be3c07009a518199a1cccd0070928568a259d2d6

Еще никто не оставлял запись к записи скачать торрент Мисима: Жизнь в четырёх главах Mishima: A Life in Four Chapters — Philip Glass — 1985, FLAC . Будь первым!

!Обратная связь