Скачать через торрент музыку Герой семьи Le heros de la famille бесплатно без регистрации torrent

Если у вас наблюдаются проблемы со скриншотами, переходом по ссылками, скачиванием торрентов - проблемы в блокировщике рекламы AdBlock. #хорошегоДня!


Статистика раздачи
Размер:  250 MB   |    Зарегистрирован:  6 месяцев   |    .torrent скачан:  12 раз   |   
Раздают:  1  
   
Загрузка...
 
Автор Сообщение

Galfimbul

avatar Galfimbul


Le héros de la famille

Жанр: Soundtrack
Год выпуска диска: 2006
Производитель диска: Россия (Sony, «БМГ Россия»)
Аудио кодек: FLAC
Тип рипа: tracks+.cue
Битрейт аудио: lossless
Продолжительность: 0:46:15

В трогательном музыкальном фильме Тьерри Клифа «Герой семьи» поют актрисы Эмманюэль Беар, Катрин Денёв и Жеральдин Пэла. Автор оригинальной музыки и аранжировщик — Давид Моро.
01. Emmanuelle Béart — It Had to be You 2:13
02. David Moreau — Le Perroquet Bleu 5:09
03. David Moreau — Le Héros de la Famille 1:52
04. Sarah Vaughan — Time after Time 3:03
05. Emmanuelle Béart — When Somebody Thinks You're Wonderful 3:08
06. Line Renaud — Les Plus Jolies Choses de la Vie 3:04
07. David Moreau — Pamela 1:41
08. Emmanuelle Béart — I'll Close My Eyes 2:11
09. Catherine Deneuve — Ho Capito che Ti Amo 2:13
10. Emmanuelle Béart — Taking a Chance on Love 2:43
11. David Moreau — Magies 2:12
12. Line Renaud — Ma P'tite Folie 2:44
13. Emmanuelle Béart — Histoire d'un Amour 2:36
14. Géraldine Pailhas — La Rose 3:22
15. Emmanuelle Béart — Maria's Eyes 3:13
16. David Moreau — Secrets 2:07
17. Jackie Trent — Make it Easy on Yourself 2:45
Exact Audio Copy V0.99 prebeta 4 from 23. January 2008

EAC extraction logfile from 27. September 2009, 5:08

Various / Le Heros de la Famille

Used drive : TOSHIBA CDW/DVD SD-R1612 Adapter: 3 ID: 0

Read mode : SecureUtilize accurate stream : YesDefeat audio cache : YesMake use of C2 pointers : No

Read offset correction : 6Overread into Lead-In and Lead-Out : NoFill up missing offset samples with silence : YesDelete leading and trailing silent blocks : NoNull samples used in CRC calculations : YesUsed interface : Native Win32 interface for Win NT & 2000Gap handling : Appended to previous track

Used output format : Internal WAV RoutinesSample format : 44.100 Hz; 16 Bit; Stereo

TOC of the extracted CD

Track | Start | Length | Start sector | End sector --------------------------------------------------------- 1 | 0:00.00 | 2:13.18 | 0 | 9992 2 | 2:13.18 | 5:09.21 | 9993 | 33188 3 | 7:22.39 | 1:51.50 | 33189 | 41563 4 | 9:14.14 | 3:03.35 | 41564 | 55323 5 | 12:17.49 | 3:07.40 | 55324 | 69388 6 | 15:25.14 | 3:03.41 | 69389 | 83154 7 | 18:28.55 | 1:40.45 | 83155 | 90699 8 | 20:09.25 | 2:10.61 | 90700 | 100510 9 | 22:20.11 | 2:13.20 | 100511 | 110505 10 | 24:33.31 | 2:43.20 | 110506 | 122750 11 | 27:16.51 | 2:12.30 | 122751 | 132680 12 | 29:29.06 | 2:43.64 | 132681 | 144969 13 | 32:12.70 | 2:35.56 | 144970 | 156650 14 | 34:48.51 | 3:22.26 | 156651 | 171826 15 | 38:11.02 | 3:12.50 | 171827 | 186276 16 | 41:23.52 | 2:06.45 | 186277 | 195771 17 | 43:30.22 | 2:45.03 | 195772 | 208149

Track 1

Filename V:\EAX\01 - It Had to be You.wav

Pre-gap length 0:00:02.00

Peak level 100.0 % Track quality 100.0 % Test CRC 8EE4B12B Copy CRC 8EE4B12B Copy OK

Track 2

Filename V:\EAX\02 - Le Perroquet Bleu.wav

Peak level 97.7 % Track quality 100.0 % Test CRC AD637EE0 Copy CRC AD637EE0 Copy OK

Track 3

Filename V:\EAX\03 - Le Heros de la Famille.wav

Pre-gap length 0:00:00.01

Peak level 100.0 % Track quality 100.0 % Test CRC 35FEFD89 Copy CRC 35FEFD89 Copy OK

Track 4

Filename V:\EAX\04 - Time after Time.wav

Pre-gap length 0:00:00.59

Peak level 100.0 % Track quality 100.0 % Test CRC 14028F34 Copy CRC 14028F34 Copy OK

Track 5

Filename V:\EAX\05 - When Somebody Thinks You're Wonderful.wav

Peak level 100.0 % Track quality 100.0 % Test CRC 46FE0CF0 Copy CRC 46FE0CF0 Copy OK

Track 6

Filename V:\EAX\06 - Les Plus Jolies Choses de la Vie.wav

Peak level 100.0 % Track quality 100.0 % Test CRC 570531A7 Copy CRC 570531A7 Copy OK

Track 7

Filename V:\EAX\07 - Pamela.wav

Peak level 100.0 % Track quality 99.8 % Test CRC 4E5452B4 Copy CRC 4E5452B4 Copy OK

Track 8

Filename V:\EAX\08 - I'll Close My Eyes.wav

Peak level 97.0 % Track quality 99.9 % Test CRC 26F810DA Copy CRC 26F810DA Copy OK

Track 9

Filename V:\EAX\09 - Ho Capito che Ti Amo.wav

Peak level 100.0 % Track quality 100.0 % Test CRC C26842FF Copy CRC C26842FF Copy OK

Track 10

Filename V:\EAX\10 - Taking a Chance on Love.wav

Peak level 100.0 % Track quality 99.8 % Test CRC 763CF3EA Copy CRC 763CF3EA Copy OK

Track 11

Filename V:\EAX\11 - Magies.wav

Peak level 100.0 % Track quality 100.0 % Test CRC 3AC4C2FA Copy CRC 3AC4C2FA Copy OK

Track 12

Filename V:\EAX\12 - Ma P'tite Folie.wav

Pre-gap length 0:00:00.24

Peak level 100.0 % Track quality 100.0 % Test CRC A5FA6D5A Copy CRC A5FA6D5A Copy OK

Track 13

Filename V:\EAX\13 - Histoire d'un Amour.wav

Peak level 100.0 % Track quality 99.9 % Test CRC 3B288DC6 Copy CRC 3B288DC6 Copy OK

Track 14

Filename V:\EAX\14 - La Rose.wav

Peak level 100.0 % Track quality 100.0 % Test CRC 6A92E811 Copy CRC 6A92E811 Copy OK

Track 15

Filename V:\EAX\15 - Maria's Eyes.wav

Peak level 99.9 % Track quality 100.0 % Test CRC D25427D5 Copy CRC D25427D5 Copy OK

Track 16

Filename V:\EAX\16 - Secrets.wav

Peak level 94.3 % Track quality 100.0 % Test CRC 78976696 Copy CRC 78976696 Copy OK

Track 17

Filename V:\EAX\17 - Make it Easy on Yourself.wav

Peak level 99.6 % Track quality 99.9 % Test CRC 1E9F874C Copy CRC 1E9F874C Copy OK

No errors occurred

End of status report


Трекер:  [ 22-Май-2017 12:00 ]

  

Скачать .torrent

Размер .torrent файла 21 KB


Размер: 250 MB
Хэш (hash) релиза: 7492ab7eab6db00cb9a4826754503c943a28c0ed

Еще никто не оставлял запись к записи скачать торрент Герой семьи Le heros de la famille . Будь первым!

!Обратная связь