Скачать через торрент музыку Девушки мечты Dreamgirls — Jennifer Hudson, Beyonce Knowles, Jamie Foxx, Eddie Murphy & VA — 2006, FLAC бесплатно без регистрации torrent

Если у вас наблюдаются проблемы со скриншотами, переходом по ссылками, скачиванием торрентов - проблемы в блокировщике рекламы AdBlock. #хорошегоДня!


Статистика раздачи
Размер:  460 MB   |    Зарегистрирован:  6 месяцев   |    .torrent скачан:  12 раз   |   
Раздают:  1  
   
Загрузка...
 
Автор Сообщение

Galfimbul

avatar Galfimbul


DREAMGIRLS
Жанр: Soundtrack
Год выпуска диска: 2006
Производитель диска: Россия (Sony, «БМГ Россия»)
Аудио кодек: FLAC
Тип рипа: tracks+.cue
Битрейт аудио: lossless
Продолжительность: 1:05:32

Самый успешный мюзикл 2006 года «Девушки мечты» получил несколько номинаций на «Оскар», а альбом песен из фильма стал первым за пять лет саундтреком, возглавившим американский хит-парад. Главную роль в ленте исполняет ярчайшая звезда R'n'B Beyoncé, а прототипом её героини послужила Diana Ross, в 60-е солировавшая в женском поп-трио The Supremes. Помимо Beyoncé, винтажную эстраду реанимируют Jamie Foxx, Jennifer Hudson и Eddie Murphy.
Jennifer Hudson, Beyonce Knowles, Anika Noni Rose
01 Move 2:19

Jennifer Hudson, Beyonce Knowles,
Eddie Murphy, Anika Noni Rose
02 Fake Your Way to the Top 3:54

Laura Bell Bundy, Jennifer Hudson,
Beyonce Knowles, Eddie Murphy, Rory O'Malley,
Anika Noni Rose, Anne Warren
03 Cadillac Car 2:23

Hinton Battle, Jamie Foxx,
Jennifer Hudson, Beyonce Knowles, Eddie Murphy,
Keith Robinson, Anika Noni Rose
04 Steppin' to the Bad Side 4:55

Jennifer Hudson
05 Love You I Do 2:51

Jennifer Hudson, Beyonce Knowles,
Eddie Murphy, Anika Noni Rose
06 I Want You Baby 2:54

Jamie Foxx, Jennifer Hudson, Beyonce Knowles,
Keith Robinson, Anika Noni Rose
07 Family 3:22

Jennifer Hudson, Beyonce Knowles, Anika Noni Rose
08 Dreamgirls 3:20

Jamie Foxx, Jennifer Hudson, Beyonce Knowles,
Sharon Leal, Keith Robinson, Anika Noni Rose
09 It's All Over 3:41

Jennifer Hudson
10 And I am Telling You
I'm Not Going
4:45

Jamie Foxx
11 When I First Saw You 2:17

Eddie Murphy, Keith Robinson, Anika Noni Rose
12 Patience 3:35

Jennifer Hudson
13 I am Changing 4:05

Eddie Murphy
14 Jimmy's Rap 3:12

Jennifer Hudson
15 One Night Only 2:58

Beyonce Knowles, Sharon Leal, Anika Noni Rose
16 One Night Only (Disco) 3:10

Beyonce Knowles
17 Listen 3:40

Beyonce Knowles, Sharon Leal, Anika Noni Rose
18 Hard to Say Goodbye 2:38

Jennifer Hudson, Beyonce Knowles,
Sharon Leal, Anika Noni Rose
19 Dreamgirls (Finale) 2:33

Jamie Foxx, Beyonce Knowles
20 When I First Saw You (Duet) 3:02
Exact Audio Copy V0.99 prebeta 4 from 23. January 2008

EAC extraction logfile from 26. September 2009, 10:21

Various / Dreamgirls

Used drive : TOSHIBA CDW/DVD SD-R1612 Adapter: 3 ID: 0

Read mode : SecureUtilize accurate stream : YesDefeat audio cache : YesMake use of C2 pointers : No

Read offset correction : 6Overread into Lead-In and Lead-Out : NoFill up missing offset samples with silence : YesDelete leading and trailing silent blocks : NoNull samples used in CRC calculations : YesUsed interface : Native Win32 interface for Win NT & 2000Gap handling : Appended to previous track

Used output format : Internal WAV RoutinesSample format : 44.100 Hz; 16 Bit; Stereo

TOC of the extracted CD

Track | Start | Length | Start sector | End sector --------------------------------------------------------- 1 | 0:00.00 | 2:18.47 | 0 | 10396 2 | 2:18.47 | 3:54.20 | 10397 | 27966 3 | 6:12.67 | 2:22.50 | 27967 | 38666 4 | 8:35.42 | 4:54.53 | 38667 | 60769 5 | 13:30.20 | 2:50.40 | 60770 | 73559 6 | 16:20.60 | 2:53.57 | 73560 | 86591 7 | 19:14.42 | 3:22.35 | 86592 | 101776 8 | 22:37.02 | 3:19.70 | 101777 | 116771 9 | 25:56.72 | 3:40.68 | 116772 | 133339 10 | 29:37.65 | 4:45.30 | 133340 | 154744 11 | 34:23.20 | 2:16.60 | 154745 | 165004 12 | 36:40.05 | 3:34.67 | 165005 | 181121 13 | 40:14.72 | 4:04.53 | 181122 | 199474 14 | 44:19.50 | 3:12.02 | 199475 | 213876 15 | 47:31.52 | 2:58.18 | 213877 | 227244 16 | 50:29.70 | 3:10.02 | 227245 | 241496 17 | 53:39.72 | 3:40.33 | 241497 | 258029 18 | 57:20.30 | 2:37.47 | 258030 | 269851 19 | 59:58.02 | 2:32.45 | 269852 | 281296 20 | 62:30.47 | 3:01.40 | 281297 | 294911

Track 1

Filename V:\EAX\01 - Move.wav

Pre-gap length 0:00:02.00

Peak level 98.8 % Track quality 100.0 % Test CRC 741402FC Copy CRC 741402FC Copy OK

Track 2

Filename V:\EAX\02 - Fake Your Way to the Top.wav

Pre-gap length 0:00:00.25

Peak level 98.8 % Track quality 100.0 % Test CRC 253C167F Copy CRC 253C167F Copy OK

Track 3

Filename V:\EAX\03 - Cadillac Car.wav

Pre-gap length 0:00:00.27

Peak level 100.0 % Track quality 100.0 % Test CRC 59AE5339 Copy CRC 59AE5339 Copy OK

Track 4

Filename V:\EAX\04 - Steppin' to the Bad Side.wav

Pre-gap length 0:00:01.05

Peak level 97.7 % Track quality 100.0 % Test CRC 80162227 Copy CRC 80162227 Copy OK

Track 5

Filename V:\EAX\05 - Love You I Do.wav

Pre-gap length 0:00:00.45

Peak level 98.8 % Track quality 100.0 % Test CRC D7A195DD Copy CRC D7A195DD Copy OK

Track 6

Filename V:\EAX\06 - I Want You Baby.wav

Pre-gap length 0:00:01.55

Peak level 100.0 % Track quality 100.0 % Test CRC 56B1ECAB Copy CRC 56B1ECAB Copy OK

Track 7

Filename V:\EAX\07 - Family.wav

Pre-gap length 0:00:00.57

Peak level 98.8 % Track quality 100.0 % Test CRC 72B07A6E Copy CRC 72B07A6E Copy OK

Track 8

Filename V:\EAX\08 - Dreamgirls.wav

Peak level 98.8 % Track quality 100.0 % Test CRC B2986F02 Copy CRC B2986F02 Copy OK

Track 9

Filename V:\EAX\09 - It's All Over.wav

Pre-gap length 0:00:00.42

Peak level 98.8 % Track quality 100.0 % Test CRC AE387640 Copy CRC AE387640 Copy OK

Track 10

Filename V:\EAX\10 - And I am Telling You I'm Not Going.wav

Peak level 98.8 % Track quality 100.0 % Test CRC 40A0B59E Copy CRC 40A0B59E Copy OK

Track 11

Filename V:\EAX\11 - When I First Saw You.wav

Pre-gap length 0:00:01.38

Peak level 96.6 % Track quality 99.9 % Test CRC 3A37B6B8 Copy CRC 3A37B6B8 Copy OK

Track 12

Filename V:\EAX\12 - Patience.wav

Pre-gap length 0:00:00.43

Peak level 100.0 % Track quality 100.0 % Test CRC 5F136637 Copy CRC 5F136637 Copy OK

Track 13

Filename V:\EAX\13 - I am Changing.wav

Pre-gap length 0:00:01.22

Peak level 98.8 % Track quality 99.9 % Test CRC 313A2094 Copy CRC 313A2094 Copy OK

Track 14

Filename V:\EAX\14 - Jimmy's Rap.wav

Pre-gap length 0:00:01.55

Peak level 100.0 % Track quality 100.0 % Test CRC 8E876B4D Copy CRC 8E876B4D Copy OK

Track 15

Filename V:\EAX\15 - One Night Only.wav

Pre-gap length 0:00:01.15

Peak level 97.7 % Track quality 100.0 % Test CRC 61EC86E9 Copy CRC 61EC86E9 Copy OK

Track 16

Filename V:\EAX\16 - One Night Only (Disco).wav

Pre-gap length 0:00:00.45

Peak level 100.0 % Track quality 100.0 % Test CRC 9CF2BD92 Copy CRC 9CF2BD92 Copy OK

Track 17

Filename V:\EAX\17 - Listen.wav

Pre-gap length 0:00:00.45

Peak level 98.8 % Track quality 100.0 % Test CRC 4FC3C7D5 Copy CRC 4FC3C7D5 Copy OK

Track 18

Filename V:\EAX\18 - Hard to Say Goodbye.wav

Pre-gap length 0:00:01.10

Peak level 98.8 % Track quality 100.0 % Test CRC 92AC8F33 Copy CRC 92AC8F33 Copy OK

Track 19

Filename V:\EAX\19 - Dreamgirls (Finale).wav

Pre-gap length 0:00:00.52

Peak level 100.0 % Track quality 100.0 % Test CRC 1046E0A0 Copy CRC 1046E0A0 Copy OK

Track 20

Filename V:\EAX\20 - When I First Saw You (Duet).wav

Pre-gap length 0:00:01.45

Peak level 98.8 % Track quality 100.0 % Test CRC 41C81C2B Copy CRC 41C81C2B Copy OK

No errors occurred

End of status report
[Verification date: 26.9.9 11:44:47]
[Disc ID: 002fdd83-02c0a32d-020f5c14]
Track [ CRC    ] Status
01    [0a0cc41a] (00/35) No matches
02    [ba1164ea] (00/35) No matches
03    [4c3d68a4] (00/34) No matches
04    [67322478] (00/35) No matches
05    [78b4d7a2] (00/35) No matches
06    [6fb28a8c] (00/35) No matches
07    [8782fb32] (00/35) No matches
08    [2b799d63] (00/34) No matches
09    [470992cb] (00/33) No matches
10    [f6c4c9d2] (00/35) No matches
11    [1713da5f] (00/35) No matches
12    [e7a698cf] (00/34) No matches
13    [af96291a] (00/35) No matches
14    [cb053ffb] (00/35) No matches
15    [9f003568] (00/35) No matches
16    [b12f064c] (00/34) No matches
17    [9078e4f5] (00/35) No matches
18    [1219d37c] (00/35) No matches
19    [3f26b7be] (00/35) No matches
20    [da1bddd0] (00/34) No matches
Offsetted by -616:
01    [331172c2] (09/35) Accurately ripped as in pressing(s) #2
02    [785d2be2] (09/35) Accurately ripped as in pressing(s) #2
03    [67f4fb6c] (09/34) Accurately ripped as in pressing(s) #2
04    [42d15da8] (09/35) Accurately ripped as in pressing(s) #2
05    [3ab56f32] (09/35) Accurately ripped as in pressing(s) #2
06    [98ada7e4] (09/35) Accurately ripped as in pressing(s) #2
07    [2e3f9a62] (09/35) Accurately ripped as in pressing(s) #2
08    [0d52418b] (09/34) Accurately ripped as in pressing(s) #2
09    [2c3839ce] (09/33) Accurately ripped as in pressing(s) #2
10    [934f2b97] (09/35) Accurately ripped as in pressing(s) #2
11    [b9b7546f] (09/35) Accurately ripped as in pressing(s) #2
12    [7e20bb7f] (09/34) Accurately ripped as in pressing(s) #2
13    [3297c87a] (09/35) Accurately ripped as in pressing(s) #2
14    [53ebeb0b] (09/35) Accurately ripped as in pressing(s) #2
15    [a7805fa8] (09/35) Accurately ripped as in pressing(s) #2
16    [95519c0c] (09/34) Accurately ripped as in pressing(s) #2
17    [5cda0eb5] (09/35) Accurately ripped as in pressing(s) #2
18    [78b8d0f4] (09/35) Accurately ripped as in pressing(s) #2
19    [ba18f64e] (09/35) Accurately ripped as in pressing(s) #2
20    [c807e870] (09/34) Accurately ripped as in pressing(s) #2
Offsetted by 18:
01    [415eea38] (08/35) Accurately ripped as in pressing(s) #3
02    [b7d4ff84] (08/35) Accurately ripped as in pressing(s) #3
03    [1492a45a] (08/34) Accurately ripped as in pressing(s) #3
04    [9e48eb1c] (08/35) Accurately ripped as in pressing(s) #3
05    [233ecc8e] (08/35) Accurately ripped as in pressing(s) #3
06    [deb52d6e] (08/35) Accurately ripped as in pressing(s) #3
07    [cbc84656] (08/35) Accurately ripped as in pressing(s) #3
08    [5a1209a1] (08/34) Accurately ripped as in pressing(s) #3
09    [501742ab] (08/33) Accurately ripped as in pressing(s) #3
10    [aec61068] (08/35) Accurately ripped as in pressing(s) #3
11    [45db8b2b] (08/35) Accurately ripped as in pressing(s) #3
12    [944aec93] (08/34) Accurately ripped as in pressing(s) #3
13    [9bf75c22] (08/35) Accurately ripped as in pressing(s) #3
14    [f8e3e987] (08/35) Accurately ripped as in pressing(s) #3
15    [b2b35218] (08/35) Accurately ripped as in pressing(s) #3
16    [15bcf99c] (08/34) Accurately ripped as in pressing(s) #3
17    [be085745] (08/35) Accurately ripped as in pressing(s) #3
18    [5ee4f8f6] (08/35) Accurately ripped as in pressing(s) #3
19    [abc435ea] (08/35) Accurately ripped as in pressing(s) #3
20    [f2bdb248] (08/34) Accurately ripped as in pressing(s) #3
Offsetted by 30:
01    [bb95ae4c] (18/35) Accurately ripped as in pressing(s) #1
02    [61021140] (18/35) Accurately ripped as in pressing(s) #1
03    [ef76217e] (17/34) Accurately ripped as in pressing(s) #1
04    [18581a34] (18/35) Accurately ripped as in pressing(s) #1
05    [ea456fd6] (18/35) Accurately ripped as in pressing(s) #1
06    [28b6ef5a] (18/35) Accurately ripped as in pressing(s) #1
07    [a3f6786e] (18/35) Accurately ripped as in pressing(s) #1
08    [23ccfc75] (17/34) Accurately ripped as in pressing(s) #1
09    [645799dd] (16/33) Accurately ripped as in pressing(s) #1
10    [435dacfa] (18/35) Accurately ripped as in pressing(s) #1
11    [ba60abb3] (18/35) Accurately ripped as in pressing(s) #1
12    [0763246b] (17/34) Accurately ripped as in pressing(s) #1
13    [e43828d2] (18/35) Accurately ripped as in pressing(s) #1
14    [17785a8f] (18/35) Accurately ripped as in pressing(s) #1
15    [bfd56538] (18/35) Accurately ripped as in pressing(s) #1
16    [58c6467c] (17/34) Accurately ripped as in pressing(s) #1
17    [31bd4e25] (18/35) Accurately ripped as in pressing(s) #1
18    [921711f2] (18/35) Accurately ripped as in pressing(s) #1
19    [f42d34b2] (18/35) Accurately ripped as in pressing(s) #1
20    [587eea98] (17/34) Accurately ripped as in pressing(s) #1

Track [ CRC32  ]    [W/O NULL]
--    [F2389529]    [59150C49]
01    [741402FC]    [E0F04DFB]
02    [253C167F]    [E17C7C80]
03    [59AE5339]    [843B581C]
04    [80162227]    [69A3C2E8]
05    [D7A195DD]    [D812E7D3]
06    [56B1ECAB]    [599283CA]
07    [72B07A6E]    [32B136A7]
08    [B2986F02]    [D12B150B]
09    [AE387640]    [3E8909AF]
10    [40A0B59E]    [CBB16AEC]
11    [3A37B6B8]    [A16499A4]
12    [5F136637]    [2F5BA5DB]
13    [313A2094]    [6D39241E]
14    [8E876B4D]    [A16DF21C]
15    [61EC86E9]    [49E32B11]
16    [9CF2BD92]    [D54CE9F8]
17    [4FC3C7D5]    [F4BAA1B1]
18    [92AC8F33]    [C63641F2]
19    [1046E0A0]    [5782967C]
20    [41C81C2B]    [E6C5A2A6]


Трекер:  [ 22-Май-2017 12:00 ]

  

Скачать .torrent

Размер .torrent файла 38 KB


Размер: 460 MB
Хэш (hash) релиза: e5a2b67f9cf1e4d8c5ef73126297e668c5c6d806

Еще никто не оставлял запись к записи скачать торрент Девушки мечты Dreamgirls — Jennifer Hudson, Beyonce Knowles, Jamie Foxx, Eddie Murphy & VA — 2006, FLAC . Будь первым!

!Обратная связь