Скачать через торрент музыку Город Бога Cidade de Deus бесплатно без регистрации torrent

Если у вас наблюдаются проблемы со скриншотами, переходом по ссылками, скачиванием торрентов - проблемы в блокировщике рекламы AdBlock. #хорошегоДня!


Статистика раздачи
Размер:  265 MB   |    Зарегистрирован:  6 месяцев   |    .torrent скачан:  12 раз   |   
Раздают:  1  
   
Загрузка...
 
Автор Сообщение

Galfimbul

avatar Galfimbul


Cidade de Deus
Авторы оригинальной музыки —
Antonio Pinto, Ed Cortês
Жанр
: Soundtrack
Год выпуска диска: 2008
Производитель диска: Россия (ФГ Никитин)
Аудио кодек: FLAC
Тип рипа: tracks+.cue
Битрейт аудио: lossless
Продолжительность: 0:43:10
01. Antonio Pinto; Ed Cortês — Meu Nome é Zé 2:32
02. Antonio Pinto; Ed Cortês — Vida de Otário 1:24
03. Antonio Pinto; Ed Cortês — Funk da Virada 1:37
04. Antonio Pinto; Ed Cortês — Estória da Boca 2:30
05. Hyldon — Na Rua, na Chuva, na Fazenda (Casinha de Sapê) 3:29
06. Antonio Pinto; Ed Cortês — A Transa 2:03
07. Raul Seixas — Metamorfose Ambulante 3:48
08. Wilson Simonal — Nem Vem que Não Tem 2:33
09. Cartola — Preciso Me Encontrar 2:57
10. Cartola — Alvorada 2:36
11. Seu Jorge; Antonio Pinto; Fabio Góes; Edmilson — Convite para Vida 2:58
12. Tim Maia — O Caminho do Bem 6:05
13. Antonio Pinto; Ed Cortês — Morte Zé Pequeno 1:10
14. DJ Camillo Rocha; DJ YAH — Batucada : remix 7:27
На упаковке диска утверждается:
Это полуправда, первый «хит» действительно присутствует на альбоме, второй (песня Джеймса Брауна) — нет.
Exact Audio Copy V0.99 prebeta 5 from 4. May 2009

EAC extraction logfile from 5. January 2010, 15:55

Various / Cidade de Deus

Used drive : Optiarc DVD RW AD-5240S Adapter: 5 ID: 1

Read mode : SecureUtilize accurate stream : YesDefeat audio cache : YesMake use of C2 pointers : No

Read offset correction : 48Overread into Lead-In and Lead-Out : NoFill up missing offset samples with silence : YesDelete leading and trailing silent blocks : NoNull samples used in CRC calculations : YesUsed interface : Native Win32 interface for Win NT & 2000Gap handling : Appended to previous track

Used output format : Internal WAV RoutinesSample format : 44.100 Hz; 16 Bit; Stereo

TOC of the extracted CD

Track | Start | Length | Start sector | End sector --------------------------------------------------------- 1 | 0:00.00 | 2:31.45 | 0 | 11369 2 | 2:31.45 | 1:24.22 | 11370 | 17691 3 | 3:55.67 | 1:37.18 | 17692 | 24984 4 | 5:33.10 | 2:30.15 | 24985 | 36249 5 | 8:03.25 | 3:29.27 | 36250 | 51951 6 | 11:32.52 | 2:03.03 | 51952 | 61179 7 | 13:35.55 | 3:47.67 | 61180 | 78271 8 | 17:23.47 | 2:33.23 | 78272 | 89769 9 | 19:56.70 | 2:56.55 | 89770 | 103024 10 | 22:53.50 | 2:36.27 | 103025 | 114751 11 | 25:30.02 | 2:58.23 | 114752 | 128124 12 | 28:28.25 | 6:04.57 | 128125 | 155481 13 | 34:33.07 | 1:10.05 | 155482 | 160736 14 | 35:43.12 | 7:27.28 | 160737 | 194289

Track 1

Filename Y:\01 - Meu nome e Ze.wav

Pre-gap length 0:00:02.00

Peak level 99.9 % Track quality 100.0 % Test CRC 5CD4217F Copy CRC 5CD4217F Accurately ripped (confidence 3) [A0062F52] Copy OK

Track 2

Filename Y:\02 - Vida de otario.wav

Peak level 99.9 % Track quality 100.0 % Test CRC AFAB37C1 Copy CRC AFAB37C1 Accurately ripped (confidence 3) [24CA3DE2] Copy OK

Track 3

Filename Y:\03 - Funk da Virada.wav

Peak level 99.9 % Track quality 100.0 % Test CRC F2C5850C Copy CRC F2C5850C Accurately ripped (confidence 3) [C339A45A] Copy OK

Track 4

Filename Y:\04 - Estoria da Boca.wav

Pre-gap length 0:00:00.65

Peak level 100.0 % Track quality 100.0 % Test CRC 1D19F91F Copy CRC 1D19F91F Accurately ripped (confidence 3) [E3616606] Copy OK

Track 5

Filename Y:\05 - Na rua, na chuva, na fazenda.wav

Pre-gap length 0:00:01.53

Peak level 97.7 % Track quality 100.0 % Test CRC 7123715F Copy CRC 7123715F Accurately ripped (confidence 3) [DE3D5FB9] Copy OK

Track 6

Filename Y:\06 - A Transa.wav

Peak level 99.9 % Track quality 100.0 % Test CRC 4F33F405 Copy CRC 4F33F405 Accurately ripped (confidence 3) [28FA1616] Copy OK

Track 7

Filename Y:\07 - Metamorfose Ambulante.wav

Pre-gap length 0:00:00.63

Peak level 99.9 % Track quality 100.0 % Test CRC 0B67F852 Copy CRC 0B67F852 Accurately ripped (confidence 3) [B56F53B3] Copy OK

Track 8

Filename Y:\08 - Nem vem que nao tem.wav

Pre-gap length 0:00:00.12

Peak level 100.0 % Track quality 100.0 % Test CRC 4EFE7035 Copy CRC 4EFE7035 Accurately ripped (confidence 3) [111181FC] Copy OK

Track 9

Filename Y:\09 - Preciso me encontrar.wav

Pre-gap length 0:00:00.50

Peak level 99.9 % Track quality 100.0 % Test CRC 2935B84C Copy CRC 2935B84C Accurately ripped (confidence 3) [4CE7A11E] Copy OK

Track 10

Filename Y:\10 - Alvorada.wav

Pre-gap length 0:00:01.40

Peak level 97.6 % Track quality 100.0 % Test CRC D6A70888 Copy CRC D6A70888 Accurately ripped (confidence 3) [A71B3543] Copy OK

Track 11

Filename Y:\11 - Convite para Vida.wav

Pre-gap length 0:00:01.62

Peak level 99.9 % Track quality 99.9 % Test CRC 138979FE Copy CRC 138979FE Accurately ripped (confidence 3) [002B30FA] Copy OK

Track 12

Filename Y:\12 - No caminho do bem.wav

Peak level 100.0 % Track quality 100.0 % Test CRC A618BE19 Copy CRC A618BE19 Accurately ripped (confidence 3) [2C0F8988] Copy OK

Track 13

Filename Y:\13 - Morte Ze Pequeno.wav

Pre-gap length 0:00:01.10

Peak level 93.8 % Track quality 99.8 % Test CRC 8C84DD8F Copy CRC 8C84DD8F Accurately ripped (confidence 3) [83BA9375] Copy OK

Track 14

Filename Y:\14 - Batucada - remix by DJ Camilo Rocha and DJ YAH.wav

Pre-gap length 0:00:01.07

Peak level 99.9 % Track quality 100.0 % Test CRC 40B68137 Copy CRC 40B68137 Accurately ripped (confidence 3) [20DF5712] Copy OK

All tracks accurately ripped

No errors occurred

End of status report
REM ACCURATERIPID 0012bc6a-00ceb621-b10a1e0eREM GENRE "Soundtrack"REM DATE 2002REM DISCID B10A1E0EREM COMMENT "ExactAudioCopy v0.99pb5"TITLE "Cidade de Deus"FILE "01 - Meu nome e Ze.flac" WAVE TRACK 01 AUDIO PERFORMER "Antonio Pinto; Ed Cortês" TITLE "Meu Nome é Zé" INDEX 01 00:00:00FILE "02 - Vida de otario.flac" WAVE TRACK 02 AUDIO PERFORMER "Antonio Pinto; Ed Cortês" TITLE "Vida de Otário" INDEX 01 00:00:00FILE "03 - Funk da Virada.flac" WAVE TRACK 03 AUDIO PERFORMER "Antonio Pinto; Ed Cortês" TITLE "Funk da Virada" INDEX 01 00:00:00 TRACK 04 AUDIO PERFORMER "Antonio Pinto; Ed Cortês" TITLE "Estória da Boca" INDEX 00 01:36:28FILE "04 - Estoria da Boca.flac" WAVE INDEX 01 00:00:00 TRACK 05 AUDIO PERFORMER "Hyldon" TITLE "Na Rua, na Chuva, na Fazenda (Casinha de Sapê)" INDEX 00 02:28:37FILE "05 - Na rua, na chuva, na fazenda.flac" WAVE INDEX 01 00:00:00FILE "06 - A Transa.flac" WAVE TRACK 06 AUDIO PERFORMER "Antonio Pinto; Ed Cortês" TITLE "A Transa" INDEX 01 00:00:00 TRACK 07 AUDIO PERFORMER "Raul Seixas" TITLE "Metamorfose Ambulante" INDEX 00 02:02:15FILE "07 - Metamorfose Ambulante.flac" WAVE INDEX 01 00:00:00 TRACK 08 AUDIO PERFORMER "Wilson Simonal" TITLE "Nem Vem que Não Tem" INDEX 00 03:47:55FILE "08 - Nem vem que nao tem.flac" WAVE INDEX 01 00:00:00 TRACK 09 AUDIO PERFORMER "Cartola" TITLE "Preciso Me Encontrar" INDEX 00 02:32:48FILE "09 - Preciso me encontrar.flac" WAVE INDEX 01 00:00:00 TRACK 10 AUDIO PERFORMER "Cartola" TITLE "Alvorada" INDEX 00 02:55:15FILE "10 - Alvorada.flac" WAVE INDEX 01 00:00:00 TRACK 11 AUDIO PERFORMER "Seu Jorge; Antonio Pinto; Fabio Góes; Edmilson" TITLE "Convite para Vida" INDEX 00 02:34:40FILE "11 - Convite para Vida.flac" WAVE INDEX 01 00:00:00FILE "12 - O caminho do bem.flac" WAVE TRACK 12 AUDIO PERFORMER "Tim Maia" TITLE "O Caminho do Bem" INDEX 01 00:00:00 TRACK 13 AUDIO PERFORMER "Antonio Pinto; Ed Cortês" TITLE "Morte Zé Pequeno" INDEX 00 06:03:47FILE "13 - Morte Ze Pequeno.flac" WAVE INDEX 01 00:00:00 TRACK 14 AUDIO PERFORMER "DJ Camillo Rocha; DJ YAH" TITLE "Batucada" INDEX 00 01:08:73FILE "14 - Batucada - remix by DJ Camilo Rocha and DJ YAH.flac" WAVE INDEX 01 00:00:00
[Verification date: 9.1.10 21:2:43][Disc ID: 0012bc6a-00ceb621-b10a1e0e]Track [ CRC ] Status 01 [a0062f52] (03/10) Accurately ripped 02 [24ca3de2] (03/10) Accurately ripped 03 [c339a45a] (03/10) Accurately ripped 04 [e3616606] (03/10) Accurately ripped 05 [de3d5fb9] (03/10) Accurately ripped 06 [28fa1616] (03/10) Accurately ripped 07 [b56f53b3] (03/10) Accurately ripped 08 [111181fc] (03/10) Accurately ripped 09 [4ce7a11e] (03/10) Accurately ripped 10 [a71b3543] (03/10) Accurately ripped 11 [002b30fa] (03/10) Accurately ripped 12 [2c0f8988] (03/10) Accurately ripped 13 [83ba9375] (03/10) Accurately ripped 14 [20df5712] (03/10) Accurately rippedOffsetted by 664: 01 [9c54cf1b] (07/10) Accurately ripped 02 [d4f8c811] (07/10) Accurately ripped 03 [fec3a812] (07/10) Accurately ripped 04 [4e6035de] (07/10) Accurately ripped 05 [52b7c6ef] (07/10) Accurately ripped 06 [dea68420] (07/10) Accurately ripped 07 [485368ee] (07/10) Accurately ripped 08 [3ee31061] (07/10) Accurately ripped 09 [ddfcb9ce] (07/10) Accurately ripped 10 [6f570733] (07/10) Accurately ripped 11 [85dc4c9f] (07/10) Accurately ripped 12 [7e0e5b6b] (07/10) Accurately ripped 13 [693f95b5] (07/10) Accurately ripped 14 [c39b79a2] (07/10) Accurately ripped

Track [ CRC32 ] [W/O NULL] -- [D1976963] [B0A09F97] 01 [5CD4217F] [BA449A51] 02 [AFAB37C1] [B72325CA] 03 [F2C5850C] [C11F3E99] 04 [1D19F91F] [A18DC02F] 05 [7123715F] [1CCE8E25] 06 [4F33F405] [0F2DA029] 07 [0B67F852] [7C91C89E] 08 [4EFE7035] [E374657D] 09 [2935B84C] [E3438CBF] 10 [D6A70888] [5215920D] 11 [138979FE] [354C3A2D] 12 [A618BE19] [66D1D5FE] 13 [8C84DD8F] [4406FD5B] 14 [40B68137] [8D03E274]
В раздачу включены сканы полиграфического оформления диска, включая небольшой буклет с комментариями Антонио Пинто и Фернанду Мейреллиша на английском языке — JPEG, 300dpi, 11 Мб.

Трекер:  [ 22-Май-2017 12:00 ]

  

Скачать .torrent

Размер .torrent файла 22 KB


Размер: 265 MB
Хэш (hash) релиза: 0edecb66fb2268138d8ecdbf11519af4c851fe1d

Торренты, похожие на Город Бога Cidade de Deus скачать торрент

Форум Название Автор Размер S L Добавлен
Саундтреки к фильмам и мультфильмам (lossless) ·· (Soundtrack) Город Бога / Cidade de Deus / City of God (2002) — Antonio Pinto, Ed Cortês & VA — 2008, FLAC (tracks+.cue), lossless Galfimbul 278237601265 MB 0 0 1292268853

22:34

13-Дек-10

Еще никто не оставлял запись к записи скачать торрент Город Бога Cidade de Deus . Будь первым!

!Обратная связь