Скачать через торрент музыку Секс в большом городе бесплатно без регистрации torrent

Если у вас наблюдаются проблемы со скриншотами, переходом по ссылками, скачиванием торрентов - проблемы в блокировщике рекламы AdBlock. #хорошегоДня!


Статистика раздачи
Размер:  803 MB   |    Зарегистрирован:  6 месяцев   |    .torrent скачан:  16 раз   |   
Раздают:  1  
   
Загрузка...
 
Автор Сообщение

Galfimbul

avatar Galfimbul


[img=right:5Jmm1Vr3tM]
Warning: imagecolorsforindex(): Color index 255 out of range in /home/youpic/public_html/includes/functions.php on line 580

Warning: imagecolorsforindex(): Color index 255 out of range in /home/youpic/public_html/includes/functions.php on line 580
http://s010.youpic.su/pictures/1495404000/efe3f323c.../img:5Jmm1Vr3tM]SEX AND THE CITY
Жанр: Soundtrack
Год выпуска диска: 2008
Производитель диска: Россия (Юниверсал Мьюзик)
Аудио кодек: FLAC
Тип рипа: tracks+.cue
Битрейт аудио: lossless
Продолжительность (2 диска): 1:53:29
См. также
: Музыка Аарона Зигмана к фильму — здесь.
01. Fergie — Labels or Love 3:51
02. Jennifer Hudson — All Dressed in Love 3:22
03. Duffy — Mercy 3:40
04. Nina Simone — The Look of Love — Madison Park vs Lenny B remix 3:43
05. Morningwood — New York Girls 2:56
06. The Weepies — All This Beauty 3:17
07. Kaskade — I Like the Way 3:40
08. Jem — It's Amazing 3:55
09. The Bird & The Bee — How Deep is Your Love 3:22
10. India.Arie — The Heart of the Matter 4:43
11. Mairi Campbell and Dave Francis — Auld Lang Syne 3:22
12. Bliss — Kissing 6:09
13. Al Green feat. Joss Stone — How Can You Mend a Broken Heart 7:01
14. Run D.M.C. feat. Steve Tyler and Joe Perry of Aerosmith — Walk This Way 5:11
15. The Pfeifer Broz. Orchestra — Sex and the City Movie Theme 0:50
Продолжительность: 0:59:02
01. Ciara — Click Flash 3:53
02. Craig David — My First Love 4:17
03. Janet Jackson — 2nite 4:08
04. Goldfrapp — Beautiful 4:45
05. Mutya Buena — Real Girl 3:26
06. Estelle feat. Cee-Lo — Pretty Please (Love Me) 3:56
07. Bitter:Sweet — Trouble 3:16
08. Elijah Kelley — Dangerous 3:49
09. Katie Herzig — Look at You Now 2:42
10. Ingrid Michaelson — Little Romance 2:44
11. Ryan Shaw — We Got Love 3:42
12. Amy Winehouse — Fool's Gold 3:38
13. Allison Moorer — Mockingbird 3:17
14. The Champagne Flutes — Hey Baby 2:39
15. Owen Brady — You Look So Good 4:14
Продолжительность: 0:54:27
<div class="sp-wrap">
<div class="sp-head folded">Vol.1</div>
<div class="sp-body">

Exact Audio Copy V0.99 prebeta 4 from 23. January 2008

EAC extraction logfile from 24. September 2009, 21:35

Various / SEX and the CITY - VoL1

Used drive : TOSHIBA CDW/DVD SD-R1612 Adapter: 3 ID: 0

Read mode : SecureUtilize accurate stream : YesDefeat audio cache : YesMake use of C2 pointers : No

Read offset correction : 6Overread into Lead-In and Lead-Out : NoFill up missing offset samples with silence : YesDelete leading and trailing silent blocks : NoNull samples used in CRC calculations : YesUsed interface : Native Win32 interface for Win NT & 2000Gap handling : Appended to previous track

Used output format : Internal WAV RoutinesSample format : 44.100 Hz; 16 Bit; Stereo

TOC of the extracted CD

Track | Start | Length | Start sector | End sector --------------------------------------------------------- 1 | 0:00.00 | 3:51.34 | 0 | 17358 2 | 3:51.34 | 3:22.16 | 17359 | 32524 3 | 7:13.50 | 3:39.53 | 32525 | 49002 4 | 10:53.28 | 3:42.53 | 49003 | 65705 5 | 14:36.06 | 2:55.52 | 65706 | 78882 6 | 17:31.58 | 3:17.06 | 78883 | 93663 7 | 20:48.64 | 3:40.10 | 93664 | 110173 8 | 24:28.74 | 3:55.02 | 110174 | 127800 9 | 28:24.01 | 3:22.19 | 127801 | 142969 10 | 31:46.20 | 4:42.61 | 142970 | 164180 11 | 36:29.06 | 3:21.47 | 164181 | 179302 12 | 39:50.53 | 6:09.27 | 179303 | 207004 13 | 46:00.05 | 7:00.56 | 207005 | 238560 14 | 53:00.61 | 5:11.28 | 238561 | 261913 15 | 58:12.14 | 0:50.25 | 261914 | 265688

Track 1

Filename V:\EAX\101 - FERGiE - Labels or Love.wav

Pre-gap length 0:00:02.00

Peak level 100.0 % Track quality 99.9 % Test CRC 00F70DC7 Copy CRC 00F70DC7 Copy OK

Track 2

Filename V:\EAX\102 - JENNiFER HUDSON - All Dressed in Love.wav

Pre-gap length 0:00:00.02

Peak level 100.0 % Track quality 99.9 % Test CRC AAAD1EE5 Copy CRC AAAD1EE5 Copy OK

Track 3

Filename V:\EAX\103 - DUFFY - Mercy.wav

Pre-gap length 0:00:00.02

Peak level 97.4 % Track quality 100.0 % Test CRC 38687F8F Copy CRC 38687F8F Copy OK

Track 4

Filename V:\EAX\104 - NiNA SiMONE - The Look of Love - Madison Park vs Lenny B remix.wav

Pre-gap length 0:00:00.02

Peak level 100.0 % Track quality 100.0 % Test CRC 72921C9C Copy CRC 72921C9C Copy OK

Track 5

Filename V:\EAX\105 - MORNiNGWOOD - New York Girls.wav

Pre-gap length 0:00:00.02

Peak level 89.0 % Track quality 100.0 % Test CRC 928DF6A6 Copy CRC 928DF6A6 Copy OK

Track 6

Filename V:\EAX\106 - The WEEPiES - All This Beauty.wav

Pre-gap length 0:00:00.02

Peak level 99.6 % Track quality 100.0 % Test CRC A0752A30 Copy CRC A0752A30 Copy OK

Track 7

Filename V:\EAX\107 - KASKADE - I Like the Way.wav

Pre-gap length 0:00:00.02

Peak level 99.9 % Track quality 99.9 % Test CRC 82956F65 Copy CRC 82956F65 Copy OK

Track 8

Filename V:\EAX\108 - JEM - It's Amazing.wav

Pre-gap length 0:00:00.02

Peak level 99.4 % Track quality 100.0 % Test CRC 1093BDF9 Copy CRC 1093BDF9 Copy OK

Track 9

Filename V:\EAX\109 - The BiRD & The BEE - How Deep is Your Love.wav

Pre-gap length 0:00:00.02

Peak level 98.2 % Track quality 100.0 % Test CRC D3560239 Copy CRC D3560239 Copy OK

Track 10

Filename V:\EAX\110 - iNDiA.ARiE - The Heart of the Matter.wav

Pre-gap length 0:00:00.02

Peak level 99.4 % Track quality 100.0 % Test CRC A62448CD Copy CRC A62448CD Copy OK

Track 11

Filename V:\EAX\111 - MAiRi CAMPBELL & DAVE FRANCIS - Auld Lang Syne.wav

Pre-gap length 0:00:00.02

Peak level 97.7 % Track quality 100.0 % Test CRC 1AC6378E Copy CRC 1AC6378E Copy OK

Track 12

Filename V:\EAX\112 - BLiSS - Kissing.wav

Pre-gap length 0:00:00.02

Peak level 98.5 % Track quality 100.0 % Test CRC 6360DD70 Copy CRC 6360DD70 Copy OK

Track 13

Filename V:\EAX\113 - AL GREEN & JOSS STONE - How Can You Mend a Broken Heart.wav

Pre-gap length 0:00:00.02

Peak level 97.7 % Track quality 100.0 % Test CRC FA5E58B6 Copy CRC FA5E58B6 Copy OK

Track 14

Filename V:\EAX\114 - RUN D.M.C. & STEVE TYLER & JOE PERRY - Walk This Way.wav

Pre-gap length 0:00:00.02

Peak level 98.3 % Track quality 100.0 % Test CRC 24E6BA7E Copy CRC 24E6BA7E Copy OK

Track 15

Filename V:\EAX\115 - The PFEiFER Broz. Orchestra - Sex and the City Movie Theme.wav

Pre-gap length 0:00:00.02

Peak level 99.6 % Track quality 100.0 % Test CRC 5492E628 Copy CRC 5492E628 Copy OK

No errors occurred

End of status report
Exact Audio Copy V0.99 prebeta 4 from 23. January 2008

EAC extraction logfile from 24. September 2009, 22:16

Various / SEX and the CITY - VoL2

Used drive : TOSHIBA CDW/DVD SD-R1612 Adapter: 3 ID: 0

Read mode : SecureUtilize accurate stream : YesDefeat audio cache : YesMake use of C2 pointers : No

Read offset correction : 6Overread into Lead-In and Lead-Out : NoFill up missing offset samples with silence : YesDelete leading and trailing silent blocks : NoNull samples used in CRC calculations : YesUsed interface : Native Win32 interface for Win NT & 2000Gap handling : Appended to previous track

Used output format : Internal WAV RoutinesSample format : 44.100 Hz; 16 Bit; Stereo

TOC of the extracted CD

Track | Start | Length | Start sector | End sector --------------------------------------------------------- 1 | 0:00.00 | 3:53.14 | 0 | 17488 2 | 3:53.14 | 4:17.06 | 17489 | 36769 3 | 8:10.20 | 4:08.06 | 36770 | 55375 4 | 12:18.26 | 4:45.30 | 55376 | 76780 5 | 17:03.56 | 3:25.60 | 76781 | 92215 6 | 20:29.41 | 3:55.70 | 92216 | 109910 7 | 24:25.36 | 3:15.69 | 109911 | 124604 8 | 27:41.30 | 3:49.29 | 124605 | 141808 9 | 31:30.59 | 2:41.54 | 141809 | 153937 10 | 34:12.38 | 2:43.73 | 153938 | 166235 11 | 36:56.36 | 3:41.64 | 166236 | 182874 12 | 40:38.25 | 3:37.55 | 182875 | 199204 13 | 44:16.05 | 3:17.05 | 199205 | 213984 14 | 47:33.10 | 2:39.28 | 213985 | 225937 15 | 50:12.38 | 4:14.22 | 225938 | 245009

Track 1

Filename V:\EAX\201 - CiARA - Click Flash.wav

Pre-gap length 0:00:02.00

Peak level 97.7 % Track quality 100.0 % Test CRC 22B97845 Copy CRC 22B97845 Copy OK

Track 2

Filename V:\EAX\202 - CRAiG DAViD - My First Love.wav

Peak level 97.7 % Track quality 100.0 % Test CRC 1E580B6B Copy CRC 1E580B6B Copy OK

Track 3

Filename V:\EAX\203 - JANET JACKSON - 2nite.wav

Peak level 99.9 % Track quality 100.0 % Test CRC 7FDF0267 Copy CRC 7FDF0267 Copy OK

Track 4

Filename V:\EAX\204 - GOLDFRAPP - Beautiful.wav

Peak level 87.4 % Track quality 100.0 % Test CRC 91407020 Copy CRC 91407020 Copy OK

Track 5

Filename V:\EAX\205 - MUTYA BUENA - Real Girl.wav

Peak level 100.0 % Track quality 100.0 % Test CRC A766D1EF Copy CRC A766D1EF Copy OK

Track 6

Filename V:\EAX\206 - ESTELLE feat CEE-LO - Pretty Please (Love Me).wav

Peak level 100.0 % Track quality 100.0 % Test CRC C04EDC62 Copy CRC C04EDC62 Copy OK

Track 7

Filename V:\EAX\207 - BiTTER-SWEET - Trouble.wav

Peak level 100.0 % Track quality 99.9 % Test CRC 3208B8A0 Copy CRC 3208B8A0 Copy OK

Track 8

Filename V:\EAX\208 - ELiJAH KELLEY - Dangerous.wav

Peak level 98.0 % Track quality 100.0 % Test CRC 1A10E5D2 Copy CRC 1A10E5D2 Copy OK

Track 9

Filename V:\EAX\209 - KATiE HERZiG - Look at You Now.wav

Peak level 97.7 % Track quality 99.9 % Test CRC 8D670964 Copy CRC 8D670964 Copy OK

Track 10

Filename V:\EAX\210 - iNGRiD MiCHAELSON - Little Romance.wav

Peak level 97.7 % Track quality 100.0 % Test CRC 994885F0 Copy CRC 994885F0 Copy OK

Track 11

Filename V:\EAX\211 - RYAN SHAW - We Got Love.wav

Peak level 100.0 % Track quality 100.0 % Test CRC A43EA424 Copy CRC A43EA424 Copy OK

Track 12

Filename V:\EAX\212 - AMY WiNEHOUSE - Fool's Gold.wav

Peak level 99.7 % Track quality 100.0 % Test CRC FC904B57 Copy CRC FC904B57 Copy OK

Track 13

Filename V:\EAX\213 - ALLiSON MOORER - Mockingbird.wav

Peak level 97.7 % Track quality 100.0 % Test CRC EB3D78AB Copy CRC EB3D78AB Copy OK

Track 14

Filename V:\EAX\214 - The CHAMPAGNE FLUTES - Hey Baby.wav

Peak level 97.7 % Track quality 99.9 % Test CRC E6500726 Copy CRC E6500726 Copy OK

Track 15

Filename V:\EAX\215 - OWEN BRADY - You Look So Good.wav

Peak level 97.7 % Track quality 100.0 % Test CRC 1680BFA1 Copy CRC 1680BFA1 Copy OK

No errors occurred

End of status report
</div>
</div>
[Verification date: 25.9.9 0:26:10]
[Disc ID: 001f0c32-01654a43-ca0dd60f]
Track [ CRC    ] Status
01    [8962b1ca] (16/16) Accurately ripped as in pressing(s) #1
02    [67026d38] (15/15) Accurately ripped as in pressing(s) #1
03    [5cd8c23e] (15/15) Accurately ripped as in pressing(s) #1
04    [9fe19596] (15/15) Accurately ripped as in pressing(s) #1
05    [6241f4cd] (15/15) Accurately ripped as in pressing(s) #1
06    [cb44a42c] (15/15) Accurately ripped as in pressing(s) #1
07    [0120b989] (15/15) Accurately ripped as in pressing(s) #1
08    [cd01b846] (15/15) Accurately ripped as in pressing(s) #1
09    [7966295b] (15/15) Accurately ripped as in pressing(s) #1
10    [88229abd] (15/15) Accurately ripped as in pressing(s) #1
11    [389d248f] (15/15) Accurately ripped as in pressing(s) #1
12    [48a79595] (15/15) Accurately ripped as in pressing(s) #1
13    [1ecfd4c0] (15/15) Accurately ripped as in pressing(s) #1
14    [0ced0f64] (15/15) Accurately ripped as in pressing(s) #1
15    [ed99f7aa] (15/15) Accurately ripped as in pressing(s) #1

Track [ CRC32  ] [W/O NULL]
--    [C5A0216F] [7FB42292]
01    [00F70DC7] [6FE9A2AE]
02    [AAAD1EE5] [405E9616]
03    [38687F8F] [84784284]
04    [72921C9C] [98854286]
05    [928DF6A6] [504D5511]
06    [A0752A30] [93BD169A]
07    [82956F65] [BF5181C7]
08    [1093BDF9] [FEF72D6A]
09    [D3560239] [34FFD6DC]
10    [A62448CD] [F4658387]
11    [1AC6378E] [ADD3C0D5]
12    [6360DD70] [186649EB]
13    [FA5E58B6] [FB9DA35D]
14    [24E6BA7E] [AD345082]
15    [5492E628] [1CD0B476]
[Verification date: 25.9.9 0:38:46]
[Disc ID: 001f2920-015bf4c5-be0cc20f]
Disk not present in database.

Track [ CRC32  ] [W/O NULL]
--    [D108919C] [2B62611E]
01    [22B97845] [091B026B]
02    [1E580B6B] [2FF703C3]
03    [7FDF0267] [3E989E0B]
04    [91407020] [D742B12A]
05    [A766D1EF] [E67AF430]
06    [C04EDC62] [5CD5C732]
07    [3208B8A0] [04132DD7]
08    [1A10E5D2] [9EB1AEFA]
09    [8D670964] [B369E63A]
10    [994885F0] [F0B1FA80]
11    [A43EA424] [2A358DB5]
12    [FC904B57] [6DE85D4B]
13    [EB3D78AB] [180A6EE5]
14    [E6500726] [5DE83713]
15    [1680BFA1] [7FDC93F5]

Трекер:  [ 22-Май-2017 16:00 ]

  

Скачать .torrent

Размер .torrent файла 66 KB


Размер: 803 MB
Хэш (hash) релиза: d8b017b3a1c54ab174dbac24beb95465658d4caa

Торренты, похожие на Секс в большом городе скачать торрент

Форум Название Автор Размер S L Добавлен
Саундтреки к фильмам и мультфильмам (mp3) ·· (Soundtrack) Секс в большом городе | Sex And The City | Sex & The City (7CD) [2000-2010, MP3, 320 kbps] Galfimbul 11291693321.05 GB 0 0 1448127963

20:46

21-Ноя-15

Саундтреки к фильмам и мультфильмам (mp3) ·· [Soundtrak / Unofficial] Секс в большом городе (Сезоны 1-6) / Sex & The City / Sex And The City (Seasons 1-6) [1998-2010, MP3, 320 kbps] ОБНОВЛЕНИЕ 21.02.2015 Galfimbul 36443732713.39 GB 0 0 1425977511

11:51

10-Мар-15

Саундтреки к фильмам и мультфильмам (mp3) ·· (Soundtrack) Секс в большом городе / Sex And The City / Sex & The City (3CD) [2008-2010, MP3, 320 kbps] Galfimbul 453232097432 MB 0 0 1425918299

19:24

9-Мар-15

Саундтреки к фильмам и мультфильмам (mp3) ·· [Soundtrak / Unofficial] Секс в большом городе (Сезоны 1-3) / Sex & The City / Sex And The City (Seasons 1-3) [1998-2010, MP3, 320 kbps] Galfimbul 10705014251021 MB 0 0 1424272946

18:22

18-Фев-15

Саундтреки ·· (Score) Секс в большом городе / Sex and the City (by Aaron Zigman) - 2008, FLAC (tracks+.cue), lossless Umakiro 229802209219 MB 0 0 1332246540

15:29

20-Мар-12

Саундтреки к фильмам и мультфильмам (lossless) ·· (Score) Секс в большом городе 2 / Sex and the City 2 (by Aaron Zigman) - 2010, FLAC (tracks+.cue), lossless Galfimbul 260600676249 MB 0 0 1328976196

19:03

11-Фев-12

Саундтреки к фильмам и мультфильмам (lossless) ·· (OST) Секс в большом городе (кинофильм) / Sex and the City : Vol. 1 & 2 — Various — 2008, FLAC (tracks+.cue), lossless Galfimbul 841765356803 MB 0 0 1292268549

22:29

13-Дек-10

Саундтреки к фильмам и мультфильмам (mp3) ·· (Soundtrack) Секс в большом городе / Sex And The City (Music From And Inspired by the TV Series) (CD 1) - 2004, MP3, 128 kbps Galfimbul 6755364364 MB 0 0 1292265880

21:44

13-Дек-10

Саундтреки к фильмам и мультфильмам (mp3) ·· (Soundtrack) Секс в большом городе / Sex And The City (Music From And Inspired by the TV Series) (CD 2) - 2004, MP3, 128 kbps Galfimbul 6563521063 MB 0 0 1292265712

21:41

13-Дек-10

Саундтреки к фильмам и мультфильмам (mp3) ·· (Soundtrack) Секс в большом городе (Сериал) / Sex And The City (Serial) - 2008, MP3 (tracks), 192 kbps Galfimbul 7646362773 MB 0 0 1292265658

21:40

13-Дек-10

Саундтреки к фильмам и мультфильмам (mp3) ·· (Score) Секс в большом городе 2 / Sex And The City 2 [Promo] (by Aaron Zigman) - 2010 [MP3 (tracks) 320 kbps] Galfimbul 121283332116 MB 0 0 1292265336

21:35

13-Дек-10

Саундтреки к фильмам и мультфильмам (mp3) ·· (Soundtrack/Score) Секс в большом городе / Sex and the City — 3 CD — Aaron Zigman (Score), VA — 2008, MP3 (tracks), 320 kbps Phoenix 402289043384 MB 0 0 1292265146

21:32

13-Дек-10

Саундтреки к фильмам и мультфильмам (mp3) ·· (Soundtrack) Секс в большом городе 2 / Sex And The City 2 (by Aaron Zigman & VA) - 2010 [MP3 (tracks) 320 kbps] AqvaGen 155158545148 MB 0 0 1292265076

21:31

13-Дек-10

Еще никто не оставлял запись к записи скачать торрент Секс в большом городе . Будь первым!

!Обратная связь