Скачать через торрент музыку Joseph Conrads The Secret Agent | Секретный агент бесплатно без регистрации torrent

Если у вас наблюдаются проблемы со скриншотами, переходом по ссылками, скачиванием торрентов - проблемы в блокировщике рекламы AdBlock. #хорошегоДня!


Статистика раздачи
Размер:  218 MB   |    Зарегистрирован:  6 месяцев   |    .torrent скачан:  14 раз   |   
Раздают:  1  
   
Загрузка...
 
Автор Сообщение

Galfimbul

avatar Galfimbul


Joseph Conrad's The Secret Agent | Секретный агент
Жанр: Score
Год выпуска диска: 2009
Производитель диска: Orange Mountain Music, USA
Аудио кодек: FLAC
Тип рипа: image+.cue
Битрейт аудио: lossless
Продолжительность: 52'10"
Трэклист:
01. Secret Agent
02. Winnie Remembers
03. Verloc and the Russian Embassy
04. Blood on the Stairs
05. The First Meridian
06. Emigration
07. Trust
08. Winnie?
09. Explosives
10. All The Money
11. Simple
12. Roast Beef
13. Safe Journey
14. Ossipon is Tempted
15. Winnie Goes to Sea
16. Secret Agent Ending

English Chamber Orchestra conducted by Michael Riesman
Exact Audio Copy V0.99 prebeta 5 from 4. May 2009

Отчёт EAC об извлечении, выполненном 17. ноября 2009, 19:29

Philip Glass / The Secret Agent

Дисковод: Optiarc DVD RW AD-7203A Adapter: 4 ID: 1

Режим чтения : ДостоверностьИспользование точного потока : ДаОтключение кэша аудио : ДаИспользование указателей C2 : Нет

Коррекция смещения при чтении : 48Способность читать области Lead-in и Lead-out : НетЗаполнение пропущенных сэмплов тишиной : ДаУдаление блоков с тишиной в начале и конце : НетПри вычислениях CRC использовались нулевые сэмплы : ДаИнтерфейс : Встроенный Win32-интерфейс для Win NT/2000

Выходной формат : Пользовательский кодировщикВыбранный битрейт : 128 kBit/sКачество : ВысокийДобавление ID3-тэга : НетУтилита сжатия : C:\Program Files\FLAC\flac.exeДополнительные параметры : -5 -V %s

TOC извлечённого CD

Трек | Старт | Длительность | Начальный сектор | Конечный сектор --------------------------------------------------------------------- 1 | 0:00.00 | 4:51.43 | 0 | 21867 2 | 4:51.43 | 3:16.32 | 21868 | 36599 3 | 8:08.00 | 5:12.45 | 36600 | 60044 4 | 13:20.45 | 1:41.67 | 60045 | 67686 5 | 15:02.37 | 3:21.37 | 67687 | 82798 6 | 18:23.74 | 1:51.70 | 82799 | 91193 7 | 20:15.69 | 3:46.63 | 91194 | 108206 8 | 24:02.57 | 5:44.20 | 108207 | 134026 9 | 29:47.02 | 2:35.15 | 134027 | 145666 10 | 32:22.17 | 1:21.45 | 145667 | 151786 11 | 33:43.62 | 2:42.35 | 151787 | 163971 12 | 36:26.22 | 2:31.47 | 163972 | 175343 13 | 38:57.69 | 4:14.58 | 175344 | 194451 14 | 43:12.52 | 3:08.57 | 194452 | 208608 15 | 46:21.34 | 2:40.70 | 208609 | 220678 16 | 49:02.29 | 3:08.20 | 220679 | 234798

Характеристики диапазона извлечения и сообщения об ошибках

Выбранный диапазон

Имя файла D:\EAC\Philip Glass - The Secret Agent.wav

Пиковый уровень 100.0 % Качество диапазона 100.0 % CRC теста 6FF62F21 CRC копии 6FF62F21 Копирование... OK

Ошибок не произошло

AccurateRip: сводка

Трек 1 нет в базе данныхТрек 2 нет в базе данныхТрек 3 нет в базе данныхТрек 4 нет в базе данныхТрек 5 нет в базе данныхТрек 6 нет в базе данныхТрек 7 нет в базе данныхТрек 8 нет в базе данныхТрек 9 нет в базе данныхТрек 10 нет в базе данныхТрек 11 нет в базе данныхТрек 12 нет в базе данныхТрек 13 нет в базе данныхТрек 14 нет в базе данныхТрек 15 нет в базе данныхТрек 16 нет в базе данных

Ни одного трека нет в базе AccurateRip

Конец отчёта
Доп. информация: from the Philip Glass recording archive: volume V 'The Secret Agent'.

Трекер:  [ 22-Май-2017 16:00 ]

  

Скачать .torrent

Размер .torrent файла 17 KB


Размер: 218 MB
Хэш (hash) релиза: 945b8a428329181978bb5fa408f935c1ecccdc0c

Еще никто не оставлял запись к записи скачать торрент Joseph Conrads The Secret Agent | Секретный агент . Будь первым!

!Обратная связь