Скачать через торрент музыку Les Animaux Amoureux бесплатно без регистрации torrent

Если у вас наблюдаются проблемы со скриншотами, переходом по ссылками, скачиванием торрентов - проблемы в блокировщике рекламы AdBlock. #хорошегоДня!


Статистика раздачи
Размер:  224 MB   |    Зарегистрирован:  6 месяцев   |    .torrent скачан:  19 раз   |   
Раздают:  1  
   
Загрузка...
 
Автор Сообщение

Galfimbul

avatar Galfimbul


Les Animaux Amoureux | Влюбленные животные
Жанр: Score
Год выпуска диска: 2007
Производитель диска: Orange Mountain Music, USA
Аудио кодек: FLAC
Тип рипа: image+.cue
Битрейт аудио: lossless
Продолжительность: 45'06"
Трэклист:
01. Swans take Flight
02. The Bath
03. The Gaze, the Scents
04. The Battle
05. Ballet of the Birds
06. The Birth of the Fawn
07. The Peacock and the Japanese Cranes
08. The Grebe's Race on Water
09. The Kangaroos
10. From Insects to Whales
11. The Happy Couples
12. The Orangutans and the Small Ducks
13. From Gazelles to Kangaroos
14. The Return of the Animals
15. The Swans Return/End Title
Exact Audio Copy V0.99 prebeta 5 from 4. May 2009

Отчёт EAC об извлечении, выполненном 16. сентября 2009, 1:23

Philip Glass / Animals in Love

Дисковод: Optiarc DVD RW AD-7203A Adapter: 4 ID: 1

Режим чтения : ДостоверностьИспользование точного потока : ДаОтключение кэша аудио : ДаИспользование указателей C2 : Нет

Коррекция смещения при чтении : 48Способность читать области Lead-in и Lead-out : НетЗаполнение пропущенных сэмплов тишиной : ДаУдаление блоков с тишиной в начале и конце : НетПри вычислениях CRC использовались нулевые сэмплы : ДаИнтерфейс : Встроенный Win32-интерфейс для Win NT/2000

Выходной формат : Пользовательский кодировщикВыбранный битрейт : 128 kBit/sКачество : ВысокийДобавление ID3-тэга : НетУтилита сжатия : C:\Program Files\FLAC\flac.exeДополнительные параметры : -5 -V %s

TOC извлечённого CD

Трек | Старт | Длительность | Начальный сектор | Конечный сектор --------------------------------------------------------------------- 1 | 0:00.00 | 2:51.50 | 0 | 12874 2 | 2:51.50 | 1:50.61 | 12875 | 21185 3 | 4:42.36 | 2:34.70 | 21186 | 32805 4 | 7:17.31 | 5:18.45 | 32806 | 56700 5 | 12:36.01 | 3:24.27 | 56701 | 72027 6 | 16:00.28 | 2:38.23 | 72028 | 83900 7 | 18:38.51 | 3:32.53 | 83901 | 99853 8 | 22:11.29 | 3:20.06 | 99854 | 114859 9 | 25:31.35 | 1:13.18 | 114860 | 120352 10 | 26:44.53 | 3:29.61 | 120353 | 136088 11 | 30:14.39 | 2:26.74 | 136089 | 147112 12 | 32:41.38 | 3:09.41 | 147113 | 161328 13 | 35:51.04 | 3:00.32 | 161329 | 174860 14 | 38:51.36 | 2:05.47 | 174861 | 184282 15 | 40:57.08 | 4:09.05 | 184283 | 202962

Характеристики диапазона извлечения и сообщения об ошибках

Выбранный диапазон

Имя файла D:\EAC\Philip Glass - Animals in Love.wav

Пиковый уровень 96.2 % Качество диапазона 100.0 % CRC теста 8DE56A13 CRC копии 8DE56A13 Копирование... OK

Ошибок не произошло

AccurateRip: сводка

Трек 1 нет в базе данныхТрек 2 нет в базе данныхТрек 3 нет в базе данныхТрек 4 нет в базе данныхТрек 5 нет в базе данныхТрек 6 нет в базе данныхТрек 7 нет в базе данныхТрек 8 нет в базе данныхТрек 9 нет в базе данныхТрек 10 нет в базе данныхТрек 11 нет в базе данныхТрек 12 нет в базе данныхТрек 13 нет в базе данныхТрек 14 нет в базе данныхТрек 15 нет в базе данных

Ни одного трека нет в базе AccurateRip

Конец отчёта
Доп. информация: На редкость мелодичный даже по меркам Гласса диск.


Трекер:  [ 22-Май-2017 16:00 ]

  

Скачать .torrent

Размер .torrent файла 18 KB


Размер: 224 MB
Хэш (hash) релиза: 6c2ba093cca5114cb0a945baec286a944059b20d

Еще никто не оставлял запись к записи скачать торрент Les Animaux Amoureux . Будь первым!

!Обратная связь