Скачать через торрент Блам! Blame! бесплатно Аниме Все серии на русском torrent

Если у вас наблюдаются проблемы со скриншотами, переходом по ссылками, скачиванием торрентов - проблемы в блокировщике рекламы AdBlock. #хорошегоДня!


Статистика раздачи
Размер:  2.2 GB   |    Зарегистрирован:  6 месяцев   |    .torrent скачан:  55 раз   |   
Раздают:  1  
   
Загрузка...
 
Автор Сообщение

Galfimbul

avatar Galfimbul


Блам!
Blame!
Blame!: Tanmatsu Ikou Toshi
Blame!: The Ancient Terminal City

Страна: Япония
Год выпуска: 2017 г.
Жанр: приключения, фантастика, драма, меха
Тип: полнометражный фильм
Продолжительность: 106 мин.
Режиссер: Сэсита Хироюки
Студия: Русские субтитры
Перевод: Feslav (AniPlague)
Редактура: Aero (YakuSub Studio)Описание: Человечество всегда стремится как можно больше упростить, автоматизировать свою жизнь, чтобы освободить время на решение более важных задач. В будущем люди достигли высокого уровня развития технологий, машинам было доверено даже строительство и оборона. Но в какой-то момент всё пошло насмарку, и некая инфекция уничтожила в людях особый ген, позволяющий им отдавать приказы роботам. Произошло восстание машин, людей, не имеющих этого гена, беспощадно истребляли, а город начал строиться сам по себе, бесконечно расширяясь. Кому-то удалось остаться в живых, но каждый день этих людей был наполнен борьбой за выживание.

В деревне девушки Зуру всего 150 человек. Но им всё равно сложно себя прокормить, практически каждый поход на поиски еды заканчивается фатально для добровольцев. Зуру и её друзья решили рискнуть и помочь умирающим от голода товарищам. Но их тоже ждала неудача, они наткнулись на Истребителей. Домой вернулись не все, да ещё и с пустыми руками. Но в своём походе они впервые повстречали человека не из деревни, странника Килли, которому чудом удаётся выживать в недружелюбном городе. Этот момент становится поворотным для существования их поселения.Информационные ссылки: AniDB | MyAnimeList | World ArtКачество: WEBRip
Тип релиза: Без хардсаба
Формат видео: MKV
Наличие линковки: Нет
Релиз/Автор рипа: HorribleSubs
Видео: x264 (8 bit), 1920x1080, 2579 Kbps, 23.976 fps
Аудио (int): JAP, AC-3, 48000 Hz, 384 Kbps, 5.1 ch
Субтитры (ext): Rus, ASS
<div class="sp-wrap">
<div class="sp-head folded">MediaInfo</div>
<div class="sp-body">

Формат : MatroskaВерсия формата : Version 4 / Version 2Размер файла : 2,20 ГбайтПродолжительность : 1 ч. 46 м.Режим общего битрейта : ПеременныйОбщий поток : 2965 Кбит/секДата кодирования : UTC 2017-05-23 03:08:25Программа кодирования : mkvmerge v6.6.0 ('The Edge Of The In Between') built on Dec 1 2013 17:55:00Библиотека кодирования : libebml v1.3.0 + libmatroska v1.4.1Attachments : OpenSans-Semibold.ttf

ВидеоИдентификатор : 1Формат : AVCФормат/Информация : Advanced Video CodecПрофиль формата : Main@L4Параметр CABAC формата : ДаПараметр ReFrames формата : 3 кадраИдентификатор кодека : V_MPEG4/ISO/AVCПродолжительность : 1 ч. 46 м.Вид битрейта : ПеременныйБитрейт : 2610 Кбит/секМаксимальный битрейт : 3915 Кбит/секШирина : 1920 пикселейВысота : 1080 пикселейСоотношение сторон : 16:9Режим частоты кадров : ПостоянныйЧастота кадров : 24,000 кадра/секЧастота кадров в оригинале : 23,976 (24000/1001) кадра/секЦветовое пространство : YUVСубдискретизация насыщенности : 4:2:0Битовая глубина : 8 битТип развёртки : ПрогрессивнаяБит/(Пиксели*Кадры) : 0.052Размер потока : 1,87 Гбайт (85%)Библиотека кодирования : x264 core 118Настройки программы : cabac=1 / ref=3 / deblock=1:0:0 / analyse=0x1:0x111 / me=umh / subme=10 / psy=1 / psy_rd=1.00:0.00 / mixed_ref=1 / me_range=24 / chroma_me=1 / trellis=2 / 8x8dct=0 / cqm=0 / deadzone=21,11 / fast_pskip=1 / chroma_qp_offset=-2 / threads=8 / sliced_threads=0 / nr=0 / decimate=1 / interlaced=0 / bluray_compat=0 / constrained_intra=0 / bframes=2 / b_pyramid=0 / b_adapt=2 / b_bias=0 / direct=3 / weightb=1 / open_gop=0 / weightp=2 / keyint=48 / keyint_min=25 / scenecut=0 / intra_refresh=0 / rc_lookahead=0 / rc=2pass / mbtree=1 / bitrate=2610 / ratetol=1.0 / qcomp=0.50 / qpmin=6 / qpmax=51 / qpstep=4 / cplxblur=20.0 / qblur=0.5 / vbv_maxrate=3915 / vbv_bufsize=5220 / nal_hrd=vbr / ip_ratio=1.40 / aq=1:1.00Default : ДаForced : Нет

АудиоИдентификатор : 2Формат : AC-3Формат/Информация : Audio Coding 3Параметр Endianness формата : BigИдентификатор кодека : A_AC3Продолжительность : 1 ч. 46 м.Вид битрейта : ПостоянныйБитрейт : 384 Кбит/секКаналы : 6 каналовРасположение каналов : Front: L C R, Side: L R, LFEЧастота : 48,0 КГцЧастота кадров : 31,250 кадров/сек (1536 spf)Битовая глубина : 16 битМетод сжатия : С потерямиЗадержка видео : -42 мс.Размер потока : 291 Мбайт (13%)Заголовок : E-AC3 5.1Язык : JapaneseServiceKind/String : Complete MainDefault : ДаForced : Нет
Duration: 01:46:01 (6360.99) Track #1: video lang: und (1) codc: V_MPEG4/ISO/AVC -> H264/AVC (22) reso: 1920x1080 -> 16:9 fram: 23.976 fps rate: 2579 kbps (2579.4) dura: 01:46:01 (6360.6) size: 1.91 GB (2050815256) Track #2: audio (E-AC3 5.1) lang: jpn -> Japanese (2) codc: A_AC3 -> AC3 (2) chan: 6 -> 5.1 Surround samp: 48000 Hz rate: 384 kbps (384.04) dura: 01:46:01 (6360.93) size: 291.21 MB (305353014) Sizes: (check sanity) disk: 2.20 GB (2357791545) atts: 216.14 KB (221328) trac: 2.19 GB (2356168270) [based on track size] bitr: 2.19 GB (2356152671) [based on bitrate] tdif: 1.34 MB (1401947) 0.05% bdif: 1.35 MB (1417545) 0.06%
</div>
</div>

Трекер:  [ 23-Май-2017 06:00 ]

  

Скачать .torrent

Размер .torrent файла 11 KB


Размер: 2.2 GB
Хэш (hash) релиза: 8be8580b775b49e362bbc330fcf6a537c0944fd4
Подписка на обновления:

Торренты, похожие на Блам! Blame! скачать торрент

Форум Название Автор Размер S L Добавлен
Аниме | HD Rips ·· Блам! / Blame! (Сэсита Хироюки) [Movie] [Без хардсаба] [JAP+SUB] [2017, приключения, фантастика, драма, меха, BDRip] [720p] Galfimbul 48362025354.5 GB 2 0 1510461057

07:30

12-Ноя-17

Аниме | HD Rips ·· Блам! / Blame! (Сэсита Хироюки) [Movie] [Без хардсаба] [JAP+SUB] [2017, приключения, фантастика, драма, меха, BDRip] [1080p] Galfimbul 1552878178014.46 GB 0 0 1510045305

12:01

7-Ноя-17

Аниме | Rips ·· Блам! / Blame! (Сэсита Хироюки) [Movie] [Без хардсаба] [RUS(int), ENG] [2017, приключения, фантастика, драма, меха, WEBRip] [HWP] Galfimbul 13312307201.24 GB 0 0 1498329069

21:31

24-Июн-17

Аниме | HD Rips ·· Блам! / Blame! (Сэсита Хироюки) [Movie] [Без хардсаба] [RUS(int), ENG] [2017, приключения, фантастика, драма, меха, WEBRip] [1080p] Galfimbul 47687251904.44 GB 0 0 1498327374

21:02

24-Июн-17

Аниме | HD Rips ·· Блам! / Blame! (Сэсита Хироюки) [Movie] [Без хардсаба] [JAP+SUB] [2017, приключения, фантастика, драма, меха, WEBRip] [1080p] Galfimbul 23577582082.2 GB 0 0 1497861079

11:31

19-Июн-17

Аниме | Rips ·· Блам! / Blame! (Сэсита Хироюки) [Movie] [Без хардсаба] [RUS(ext), JAP+SUB] [2017, приключения, фантастика, драма, меха, WEBRip] [1080p] Galfimbul 25090371562.34 GB 0 0 1496965149

02:39

9-Июн-17

Аниме | Rips ·· Блам! / Blame! (Сэсита Хироюки) [Movie] [Без хардсаба] [RUS(ext), JAP+SUB] [2017, приключения, фантастика, драма, меха, WEBRip] [1080p] Galfimbul 25092568532.34 GB 0 0 1495881834

13:43

27-Май-17

Аниме | Rips ·· Блам! / Blame! / Виновен [ONA+Special] [6+1 из 6+1] [Без хардсаба] [RUS(int), JAP, SUB] [2003, приключения, фантастика, меха, DVDRip] Galfimbul 544366153519 MB 0 0 1487795678

23:34

22-Фев-17

Манга ·· Nihei Tsutomu / Нихэй Цутому - Блам! / Blame! [manga] [1-65] [1997 г., боевик, драма, ужасы, психология, фантастика, сэйнэн] [complete] Polarnik 427927665408 MB 0 0 1373920797

23:39

15-Июл-13

Аниме | Rips ·· Блам! / Blame! [ONA][1-6 из 6 + Special][JAP+SUB][2003 г., приключения, фантастика, меха, DVDRip] Polarnik 648793137619 MB 0 0 1290021367

22:16

17-Ноя-10

Аниме | Rips ·· Блам! (фильм) / Blame! [Movie] [Без хардсаба] [RUS(int), JAP+SUB] [2017, приключения, фантастика, киберпанк, BDRip] [HWP] Galfimbul 15254329031.42 GB 0 0 1511325052

07:30

22-Ноя-17

Еще никто не оставлял запись к записи скачать торрент Блам! Blame! . Будь первым!

!Обратная связь