Скачать через торрент музыку The Maltese Falcon and other film scores by Adolph Deutsch — также The Mask of Dimitrios бесплатно без регистрации torrent

Если у вас наблюдаются проблемы со скриншотами, переходом по ссылками, скачиванием торрентов - проблемы в блокировщике рекламы AdBlock. #хорошегоДня!


Статистика раздачи
Размер:  372 MB   |    Зарегистрирован:  6 месяцев   |    .torrent скачан:  9 раз   |   
Раздают:  1  
   
Загрузка...
 
Автор Сообщение

Galfimbul

avatar Galfimbul


The Maltese Falcon 1941
and other film scores byAdolph Deutsch
including
George Washington Slept Here 1942 1944 [b] 1941 [b]Northern Pursuit 1943
Жанр
: Score
Год выпуска диска: 2005
Производитель диска: Канада (Naxos)
Аудио кодек: FLAC
Тип рипа: tracks+.cue
Битрейт аудио: lossless
Продолжительность: 1:15:49

Издание подготовлено композитором Джоном Морганом (John Morgan), энтузиастом восстановления старой музыки кино. Для реконструкции была отобрана музыка, созданная Адольфом Дойчем в период его сотрудничества со студией Warner Brothers в 40-х годах ушедшего века, к фильмам разнообразных жанров: это классический нуар-фильм «Мальтийский сокол» и гангстерская драма «Высокая Сьерра», важнейшие вехи в актёрской карьере Хэмфри Богарта; приключенческая лента «Северная погоня» с Эрролом Флинном; легкомысленная комедия «Джордж Вашингтон ночевал здесь»; и таинственный, экзотический детектив «Маска Димитриоса».

Московским симфоническим оркестром дирижирует Вильям Стромберг (William Stromberg). Запись выполнена на студии «Мосфильм» в сентябре 2000 года.

Оригинал диска вышел в серии Marco Polo Classic Film Music в 2002 году, а данное издание — его «бюджетная» копия от Naxos Classics.
01. The Maltese Falcon : Main Title 2:07
02. Street Scene 1:37
03. Door Slam 0:28
04. The Deal 2:47
05. The Plot 3:02
06. Gutman 2:08
07. End Title 0:54
08. End Cast 0:45
13:4909. George Washington Slept Here : Main Title 1:22
10. Arrival at House 2:06
11. Uncle Arrives 1:00
12. The Phone 1:48
13. The Letter — Wheelbarrow 2:39
14. Locust — End Title 2:24
11:1915. The Mask of Dimitrios : Main Title — Deadman 2:22
16. Dimitrios Selects a Victim 1:43
17. Contract 0:35
18. Dirty Spy 2:07
19. The Traitor 0:43
20. Peter Writes a Letter 1:42
21. The Escape 1:28
22. Blackmail Letter 1:26
23. The Black Hat 0:26
24. Struggle for the Gun 0:56
25. Revenge 0:40
26. Death of Dimitrios — Finale 2:03
16:1127. High Sierra : Main Title 0:50
28. The Pardon 2:57
29. Velma's Plight 3:52
30. The Giveaway 3:11
31. Apprehended 2:28
13:1932. Northern Pursuit : Main Title 1:47
33. Nazi Sub — Customs — Train 3:29
34. Consultation 1:46
35. Planning the Escape 1:58
36. Escape 1:08
37. Preparation 2:04
38. Eavesdropping 0:47
39. Gun Battle 2:43
40. The Big Battle 4:47
41. End Title: 'What am I Saying?' 0:42
21:11
Exact Audio Copy V0.99 prebeta 5 from 4. May 2009

EAC extraction logfile from 24. January 2010, 2:10

Adolph Deutsch / The Maltese Falcon and other film scores

Used drive : Optiarc DVD RW AD-5240S Adapter: 5 ID: 1

Read mode : SecureUtilize accurate stream : YesDefeat audio cache : YesMake use of C2 pointers : No

Read offset correction : 48Overread into Lead-In and Lead-Out : NoFill up missing offset samples with silence : YesDelete leading and trailing silent blocks : NoNull samples used in CRC calculations : YesUsed interface : Native Win32 interface for Win NT & 2000Gap handling : Appended to previous track

Used output format : Internal WAV RoutinesSample format : 44.100 Hz; 16 Bit; Stereo

TOC of the extracted CD

Track | Start | Length | Start sector | End sector --------------------------------------------------------- 1 | 0:00.00 | 2:07.30 | 0 | 9554 2 | 2:07.30 | 1:37.37 | 9555 | 16866 3 | 3:44.67 | 0:28.28 | 16867 | 18994 4 | 4:13.20 | 2:46.70 | 18995 | 31514 5 | 7:00.15 | 3:01.70 | 31515 | 45159 6 | 10:02.10 | 2:07.67 | 45160 | 54751 7 | 12:10.02 | 0:54.05 | 54752 | 58806 8 | 13:04.07 | 0:44.50 | 58807 | 62156 9 | 13:48.57 | 1:22.03 | 62157 | 68309 10 | 15:10.60 | 2:06.07 | 68310 | 77766 11 | 17:16.67 | 0:59.38 | 77767 | 82229 12 | 18:16.30 | 1:48.17 | 82230 | 90346 13 | 20:04.47 | 2:39.05 | 90347 | 102276 14 | 22:43.52 | 2:23.60 | 102277 | 113061 15 | 25:07.37 | 2:21.68 | 113062 | 123704 16 | 27:29.30 | 1:43.02 | 123705 | 131431 17 | 29:12.32 | 0:35.28 | 131432 | 134084 18 | 29:47.60 | 2:07.10 | 134085 | 143619 19 | 31:54.70 | 0:43.35 | 143620 | 146879 20 | 32:38.30 | 1:42.00 | 146880 | 154529 21 | 34:20.30 | 1:28.00 | 154530 | 161129 22 | 35:48.30 | 1:26.22 | 161130 | 167601 23 | 37:14.52 | 0:25.65 | 167602 | 169541 24 | 37:40.42 | 0:55.58 | 169542 | 173724 25 | 38:36.25 | 0:39.52 | 173725 | 176701 26 | 39:16.02 | 2:02.65 | 176702 | 185916 27 | 41:18.67 | 0:50.10 | 185917 | 189676 28 | 42:09.02 | 2:57.30 | 189677 | 202981 29 | 45:06.32 | 3:52.25 | 202982 | 220406 30 | 48:58.57 | 3:10.70 | 220407 | 234726 31 | 52:09.52 | 2:28.15 | 234727 | 245841 32 | 54:37.67 | 1:46.63 | 245842 | 253854 33 | 56:24.55 | 3:28.57 | 253855 | 269511 34 | 59:53.37 | 1:45.65 | 269512 | 277451 35 | 61:39.27 | 1:58.08 | 277452 | 286309 36 | 63:37.35 | 1:08.00 | 286310 | 291409 37 | 64:45.35 | 2:04.35 | 291410 | 300744 38 | 66:49.70 | 0:47.25 | 300745 | 304294 39 | 67:37.20 | 2:42.50 | 304295 | 316494 40 | 70:19.70 | 4:46.72 | 316495 | 338016 41 | 75:06.67 | 0:42.10 | 338017 | 341176

Track 1

Filename Y:\01 - The Maltese Falcon - Main Title.wav

Pre-gap length 0:00:02.00

Peak level 100.0 % Track quality 100.0 % Test CRC B9A28180 Copy CRC B9A28180 Accurately ripped (confidence 6) [93DD8767] Copy OK

Track 2

Filename Y:\02 - Street Scene.wav

Peak level 59.9 % Track quality 100.0 % Test CRC 1232CE47 Copy CRC 1232CE47 Accurately ripped (confidence 6) [B1F9D4AC] Copy OK

Track 3

Filename Y:\03 - Door Slam.wav

Peak level 55.5 % Track quality 100.0 % Test CRC B37CD454 Copy CRC B37CD454 Accurately ripped (confidence 6) [27B3126A] Copy OK

Track 4

Filename Y:\04 - The Deal.wav

Peak level 95.6 % Track quality 100.0 % Test CRC 77572866 Copy CRC 77572866 Accurately ripped (confidence 6) [81202AE2] Copy OK

Track 5

Filename Y:\05 - The Plot.wav

Peak level 89.7 % Track quality 99.9 % Test CRC 8823B0EE Copy CRC 8823B0EE Accurately ripped (confidence 6) [DB2D15D7] Copy OK

Track 6

Filename Y:\06 - Gutman.wav

Peak level 38.6 % Track quality 100.0 % Test CRC 13B77701 Copy CRC 13B77701 Accurately ripped (confidence 6) [D6F3ACED] Copy OK

Track 7

Filename Y:\07 - End Title.wav

Peak level 95.4 % Track quality 100.0 % Test CRC D5EAC3F8 Copy CRC D5EAC3F8 Accurately ripped (confidence 6) [8981CEB8] Copy OK

Track 8

Filename Y:\08 - End Cast.wav

Peak level 91.2 % Track quality 100.0 % Test CRC 42B6D3C8 Copy CRC 42B6D3C8 Accurately ripped (confidence 6) [DFA7892B] Copy OK

Track 9

Filename Y:\09 - George Washington Slept Here - Main Title.wav

Pre-gap length 0:00:01.65

Peak level 100.0 % Track quality 99.8 % Test CRC 9F24BD23 Copy CRC 9F24BD23 Accurately ripped (confidence 6) [BDB308AC] Copy OK

Track 10

Filename Y:\10 - Arrival at House.wav

Peak level 67.6 % Track quality 100.0 % Test CRC D0B6BB6A Copy CRC D0B6BB6A Accurately ripped (confidence 6) [520ECFFE] Copy OK

Track 11

Filename Y:\11 - Uncle Arrives.wav

Peak level 91.5 % Track quality 100.0 % Test CRC 6B83D71E Copy CRC 6B83D71E Accurately ripped (confidence 6) [358289B5] Copy OK

Track 12

Filename Y:\12 - The Phone.wav

Peak level 72.8 % Track quality 99.9 % Test CRC 68D75430 Copy CRC 68D75430 Accurately ripped (confidence 6) [FA2ADA22] Copy OK

Track 13

Filename Y:\13 - The Letter - Wheelbarrow.wav

Peak level 85.3 % Track quality 99.9 % Test CRC 11ED4C8B Copy CRC 11ED4C8B Accurately ripped (confidence 6) [D4E6F644] Copy OK

Track 14

Filename Y:\14 - Locust - End Title.wav

Peak level 96.3 % Track quality 99.9 % Test CRC A0DBAEEC Copy CRC A0DBAEEC Accurately ripped (confidence 6) [296FE705] Copy OK

Track 15

Filename Y:\15 - The Mask of Dimitrios - Main Title - Deadman.wav

Peak level 91.4 % Track quality 100.0 % Test CRC EFBA8B6D Copy CRC EFBA8B6D Accurately ripped (confidence 6) [29A29BF8] Copy OK

Track 16

Filename Y:\16 - Dimitrios Selects a Victim.wav

Peak level 51.6 % Track quality 100.0 % Test CRC FFF44EC1 Copy CRC FFF44EC1 Accurately ripped (confidence 6) [06D0550A] Copy OK

Track 17

Filename Y:\17 - Contract.wav

Peak level 78.0 % Track quality 100.0 % Test CRC 7A3E916D Copy CRC 7A3E916D Accurately ripped (confidence 6) [5132723D] Copy OK

Track 18

Filename Y:\18 - Dirty Spy.wav

Peak level 56.2 % Track quality 100.0 % Test CRC 98F58A9E Copy CRC 98F58A9E Accurately ripped (confidence 6) [1F3AC359] Copy OK

Track 19

Filename Y:\19 - The Traitor.wav

Peak level 61.3 % Track quality 99.7 % Test CRC F4FC8B07 Copy CRC F4FC8B07 Accurately ripped (confidence 6) [F06CD646] Copy OK

Track 20

Filename Y:\20 - Peter Writes a Letter.wav

Peak level 38.3 % Track quality 100.0 % Test CRC 7350405B Copy CRC 7350405B Accurately ripped (confidence 6) [6E204DC3] Copy OK

Track 21

Filename Y:\21 - The Escape.wav

Peak level 83.1 % Track quality 99.8 % Test CRC 83782908 Copy CRC 83782908 Accurately ripped (confidence 6) [3A59A6A8] Copy OK

Track 22

Filename Y:\22 - Blackmail Letter.wav

Peak level 42.2 % Track quality 100.0 % Test CRC 7A7DDBCC Copy CRC 7A7DDBCC Accurately ripped (confidence 6) [736A0D2D] Copy OK

Track 23

Filename Y:\23 - The Black Hat.wav

Peak level 85.3 % Track quality 100.0 % Test CRC 9F0343C3 Copy CRC 9F0343C3 Accurately ripped (confidence 6) [661A9E8C] Copy OK

Track 24

Filename Y:\24 - Struggle for the Gun.wav

Peak level 96.3 % Track quality 99.8 % Test CRC E2B3DA3A Copy CRC E2B3DA3A Accurately ripped (confidence 6) [6CD86432] Copy OK

Track 25

Filename Y:\25 - Revenge.wav

Peak level 96.7 % Track quality 100.0 % Test CRC BF756AFB Copy CRC BF756AFB Accurately ripped (confidence 6) [6F7B99E8] Copy OK

Track 26

Filename Y:\26 - Death of Dimitrios - Finale.wav

Peak level 98.7 % Track quality 99.9 % Test CRC C21288AF Copy CRC C21288AF Accurately ripped (confidence 6) [4C1968A1] Copy OK

Track 27

Filename Y:\27 - High Sierra - Main Title.wav

Pre-gap length 0:00:01.52

Peak level 91.7 % Track quality 99.7 % Test CRC 35485140 Copy CRC 35485140 Accurately ripped (confidence 6) [84FF076A] Copy OK

Track 28

Filename Y:\28 - The Pardon.wav

Peak level 52.0 % Track quality 100.0 % Test CRC 68C5013E Copy CRC 68C5013E Accurately ripped (confidence 6) [1973FF23] Copy OK

Track 29

Filename Y:\29 - Velma's Plight.wav

Peak level 38.9 % Track quality 100.0 % Test CRC DC80E31B Copy CRC DC80E31B Accurately ripped (confidence 6) [F2B1B0A5] Copy OK

Track 30

Filename Y:\30 - The Giveaway.wav

Peak level 85.8 % Track quality 99.9 % Test CRC 7577B6B7 Copy CRC 7577B6B7 Accurately ripped (confidence 6) [3894B695] Copy OK

Track 31

Filename Y:\31 - Apprehended.wav

Peak level 96.8 % Track quality 100.0 % Test CRC C6F813F0 Copy CRC C6F813F0 Accurately ripped (confidence 6) [FFE36975] Copy OK

Track 32

Filename Y:\32 - Northern Pursuit - Main Title.wav

Pre-gap length 0:00:02.00

Peak level 97.0 % Track quality 100.0 % Test CRC 58546E09 Copy CRC 58546E09 Accurately ripped (confidence 6) [F62FF27B] Copy OK

Track 33

Filename Y:\33 - Nazi Sub - Customs - Train.wav

Peak level 81.7 % Track quality 100.0 % Test CRC 107F1973 Copy CRC 107F1973 Accurately ripped (confidence 6) [2E39914D] Copy OK

Track 34

Filename Y:\34 - Consultation.wav

Peak level 39.9 % Track quality 100.0 % Test CRC 3F2DC21E Copy CRC 3F2DC21E Accurately ripped (confidence 6) [2C1FA11C] Copy OK

Track 35

Filename Y:\35 - Planning the Escape.wav

Peak level 82.8 % Track quality 100.0 % Test CRC 54439FD0 Copy CRC 54439FD0 Accurately ripped (confidence 6) [9A9CC6A4] Copy OK

Track 36

Filename Y:\36 - Escape.wav

Peak level 85.9 % Track quality 100.0 % Test CRC ACE255C7 Copy CRC ACE255C7 Accurately ripped (confidence 6) [DCF35EC9] Copy OK

Track 37

Filename Y:\37 - Preparation.wav

Peak level 96.9 % Track quality 100.0 % Test CRC 1D60D64D Copy CRC 1D60D64D Accurately ripped (confidence 6) [9E064988] Copy OK

Track 38

Filename Y:\38 - Eavesdropping.wav

Peak level 48.5 % Track quality 100.0 % Test CRC 671B33E7 Copy CRC 671B33E7 Accurately ripped (confidence 6) [4CB402CA] Copy OK

Track 39

Filename Y:\39 - Gun Battle.wav

Peak level 90.9 % Track quality 100.0 % Test CRC D02C2B03 Copy CRC D02C2B03 Accurately ripped (confidence 6) [7E39748B] Copy OK

Track 40

Filename Y:\40 - The Big Battle.wav

Peak level 95.1 % Track quality 100.0 % Test CRC 91C10168 Copy CRC 91C10168 Accurately ripped (confidence 6) [F72A617F] Copy OK

Track 41

Filename Y:\41 - End Title- 'What am I Saying '.wav

Peak level 100.0 % Track quality 100.0 % Test CRC 607514C1 Copy CRC 607514C1 Accurately ripped (confidence 6) [85840EC0] Copy OK

All tracks accurately ripped

No errors occurred

End of status report
REM ACCURATERIPID 00675b46-0ba2c6ee-4411c529REM GENRE "Soundtrack"REM DATE 2005REM DISCID 4411C529REM COMMENT "ExactAudioCopy v0.99pb5"PERFORMER "Adolph Deutsch"FILE "01 - The Maltese Falcon - Main Title.flac" WAVE TRACK 01 AUDIO PERFORMER "Adolph Deutsch" TITLE "The Maltese Falcon : Main Title" INDEX 01 00:00:00FILE "02 - Street Scene.flac" WAVE TRACK 02 AUDIO PERFORMER "Adolph Deutsch" TITLE "Street Scene" INDEX 01 00:00:00FILE "03 - Door Slam.flac" WAVE TRACK 03 AUDIO PERFORMER "Adolph Deutsch" TITLE "Door Slam" INDEX 01 00:00:00FILE "04 - The Deal.flac" WAVE TRACK 04 AUDIO PERFORMER "Adolph Deutsch" TITLE "The Deal" INDEX 01 00:00:00FILE "05 - The Plot.flac" WAVE TRACK 05 AUDIO PERFORMER "Adolph Deutsch" TITLE "The Plot" INDEX 01 00:00:00FILE "06 - Gutman.flac" WAVE TRACK 06 AUDIO PERFORMER "Adolph Deutsch" TITLE "Gutman" INDEX 01 00:00:00FILE "07 - End Title.flac" WAVE TRACK 07 AUDIO PERFORMER "Adolph Deutsch" TITLE "End Title" INDEX 01 00:00:00FILE "08 - End Cast.flac" WAVE TRACK 08 AUDIO PERFORMER "Adolph Deutsch" TITLE "End Cast" INDEX 01 00:00:00 TRACK 09 AUDIO PERFORMER "Adolph Deutsch" TITLE "George Washington Slept Here : Main Title" INDEX 00 00:42:60FILE "09 - George Washington Slept Here - Main Title.flac" WAVE INDEX 01 00:00:00FILE "10 - Arrival at House.flac" WAVE TRACK 10 AUDIO PERFORMER "Adolph Deutsch" TITLE "Arrival at House" INDEX 01 00:00:00FILE "11 - Uncle Arrives.flac" WAVE TRACK 11 AUDIO PERFORMER "Adolph Deutsch" TITLE "Uncle Arrives" INDEX 01 00:00:00FILE "12 - The Phone.flac" WAVE TRACK 12 AUDIO PERFORMER "Adolph Deutsch" TITLE "The Phone" INDEX 01 00:00:00FILE "13 - The Letter - Wheelbarrow.flac" WAVE TRACK 13 AUDIO PERFORMER "Adolph Deutsch" TITLE "The Letter - Wheelbarrow" INDEX 01 00:00:00FILE "14 - Locust - End Title.flac" WAVE TRACK 14 AUDIO PERFORMER "Adolph Deutsch" TITLE "Locust - End Title" INDEX 01 00:00:00FILE "15 - The Mask of Dimitrios - Main Title - Deadman.flac" WAVE TRACK 15 AUDIO PERFORMER "Adolph Deutsch" TITLE "The Mask of Dimitrios : Main Title - Deadman" INDEX 01 00:00:00FILE "16 - Dimitrios Selects a Victim.flac" WAVE TRACK 16 AUDIO PERFORMER "Adolph Deutsch" TITLE "Dimitrios Selects a Victim" INDEX 01 00:00:00FILE "17 - Contract.flac" WAVE TRACK 17 AUDIO PERFORMER "Adolph Deutsch" TITLE "Contract" INDEX 01 00:00:00FILE "18 - Dirty Spy.flac" WAVE TRACK 18 AUDIO PERFORMER "Adolph Deutsch" TITLE "Dirty Spy" INDEX 01 00:00:00FILE "19 - The Traitor.flac" WAVE TRACK 19 AUDIO PERFORMER "Adolph Deutsch" TITLE "The Traitor" INDEX 01 00:00:00FILE "20 - Peter Writes a Letter.flac" WAVE TRACK 20 AUDIO PERFORMER "Adolph Deutsch" TITLE "Peter Writes a Letter" INDEX 01 00:00:00FILE "21 - The Escape.flac" WAVE TRACK 21 AUDIO PERFORMER "Adolph Deutsch" TITLE "The Escape" INDEX 01 00:00:00FILE "22 - Blackmail Letter.flac" WAVE TRACK 22 AUDIO PERFORMER "Adolph Deutsch" TITLE "Blackmail Letter" INDEX 01 00:00:00FILE "23 - The Black Hat.flac" WAVE TRACK 23 AUDIO PERFORMER "Adolph Deutsch" TITLE "The Black Hat" INDEX 01 00:00:00FILE "24 - Struggle for the Gun.flac" WAVE TRACK 24 AUDIO PERFORMER "Adolph Deutsch" TITLE "Struggle for the Gun" INDEX 01 00:00:00FILE "25 - Revenge.flac" WAVE TRACK 25 AUDIO PERFORMER "Adolph Deutsch" TITLE "Revenge" INDEX 01 00:00:00FILE "26 - Death of Dimitrios - Finale.flac" WAVE TRACK 26 AUDIO PERFORMER "Adolph Deutsch" TITLE "Death of Dimitrios - Finale" INDEX 01 00:00:00 TRACK 27 AUDIO PERFORMER "Adolph Deutsch" TITLE "High Sierra : Main Title" INDEX 00 02:01:13FILE "27 - High Sierra - Main Title.flac" WAVE INDEX 01 00:00:00FILE "28 - The Pardon.flac" WAVE TRACK 28 AUDIO PERFORMER "Adolph Deutsch" TITLE "The Pardon" INDEX 01 00:00:00FILE "29 - Velma's Plight.flac" WAVE TRACK 29 AUDIO PERFORMER "Adolph Deutsch" TITLE "Velma's Plight" INDEX 01 00:00:00FILE "30 - The Giveaway.flac" WAVE TRACK 30 AUDIO PERFORMER "Adolph Deutsch" TITLE "The Giveaway" INDEX 01 00:00:00FILE "31 - Apprehended.flac" WAVE TRACK 31 AUDIO PERFORMER "Adolph Deutsch" TITLE "Apprehended" INDEX 01 00:00:00 TRACK 32 AUDIO PERFORMER "Adolph Deutsch" TITLE "Northern Pursuit : Main Title" INDEX 00 02:26:15FILE "32 - Northern Pursuit - Main Title.flac" WAVE INDEX 01 00:00:00FILE "33 - Nazi Sub - Customs - Train.flac" WAVE TRACK 33 AUDIO PERFORMER "Adolph Deutsch" TITLE "Nazi Sub - Customs - Train" INDEX 01 00:00:00FILE "34 - Consultation.flac" WAVE TRACK 34 AUDIO PERFORMER "Adolph Deutsch" TITLE "Consultation" INDEX 01 00:00:00FILE "35 - Planning the Escape.flac" WAVE TRACK 35 AUDIO PERFORMER "Adolph Deutsch" TITLE "Planning the Escape" INDEX 01 00:00:00FILE "36 - Escape.flac" WAVE TRACK 36 AUDIO PERFORMER "Adolph Deutsch" TITLE "Escape" INDEX 01 00:00:00FILE "37 - Preparation.flac" WAVE TRACK 37 AUDIO PERFORMER "Adolph Deutsch" TITLE "Preparation" INDEX 01 00:00:00FILE "38 - Eavesdropping.flac" WAVE TRACK 38 AUDIO PERFORMER "Adolph Deutsch" TITLE "Eavesdropping" INDEX 01 00:00:00FILE "39 - Gun Battle.flac" WAVE TRACK 39 AUDIO PERFORMER "Adolph Deutsch" TITLE "Gun Battle" INDEX 01 00:00:00FILE "40 - The Big Battle.flac" WAVE TRACK 40 AUDIO PERFORMER "Adolph Deutsch" TITLE "The Big Battle" INDEX 01 00:00:00FILE "41 - End Title - What am I Saying.flac" WAVE TRACK 41 AUDIO PERFORMER "Adolph Deutsch" TITLE "End Title: 'What am I Saying?'" INDEX 01 00:00:00
В раздаче присутствуют сканы полиграфического оформления диска — PNG, 300dpi, 14.6 Мб — отчасти продублированные pdf-версией буклета (распознанный текст, 6 Мб).

Трекер:  [ 23-Май-2017 10:30 ]

  

Скачать .torrent

Размер .torrent файла 32 KB


Размер: 372 MB
Хэш (hash) релиза: f78e6ab1f792a1b7949640efa3d30e127f2619c5

Еще никто не оставлял запись к записи скачать торрент The Maltese Falcon and other film scores by Adolph Deutsch — также The Mask of Dimitrios . Будь первым!

!Обратная связь