Скачать через торрент Тайные желания отвергнутых Kuzu no Honkai бесплатно Аниме Все серии на русском torrent

Если у вас наблюдаются проблемы со скриншотами, переходом по ссылками, скачиванием торрентов - проблемы в блокировщике рекламы AdBlock. #хорошегоДня!


Статистика раздачи
Размер:  3.97 GB   |    Зарегистрирован:  6 месяцев   |    .torrent скачан:  14 раз   |   
Раздают:  1  
   
Загрузка...
 
Автор Сообщение

Galfimbul

avatar Galfimbul


Тайные желания отвергнутых / Kuzu no Honkai

Страна: Япония
Год выпуска: 2017
Жанр: романтика, драма, школа, сейнен
Тип: TV
Продолжительность: 12 эп. по 24 мин.Озвучка:

Двухголосая (муж/жен) от Soer & MezIdA (DeadLineStudio)
Двухголосая (муж/жен) от Zendos & Eladiel (Onibaku)

Русские субтитры: есть (отдельным файлом, формат .ass)
Перевод:

Chris Foster, hoshizora, SeeR, Surokune [Akashi]
Bourbonice, Mr. A. Grayson [AOS]
nippa, Ryuji

Режиссер: Андо Масаоми
Студия: Lerche

Описание: Описание: Семнадцатилетние Ясураока Ханаби и Авая Муги считаются среди школьников идеальной парой. Парни завидуют Авае, считая его самым везучим в школе, ведь он заполучил красавицу Ханаби, у которой множество поклонников. Девочки же, в свою очередь, грызут локти от зависти к Ханаби, отхватившей себе светловолосого и белокожего Муги. Но ни те, ни другие не могут поспорить с тем, что этой паре буквально сами небеса предписали быть вместе, они безупречно подходят друг другу.

«Что же в этой истории может быть не так?» – спросите вы. Ведь скучно смотреть, когда у всех всё хорошо, и никаких передряг. Но не всё так просто, у авторов есть для вас внезапный поворот сюжета! В паре Ханаби и Муги идеально всё, но… они не любят друг друга. Вместо взаимной любви они испытывают неразделённую любовь к своим учителям. Ханаби безответно влюблена в учителя Канаи, который, помимо всего прочего, её старший брат. А Муги вздыхает по учительнице Минагава, заигрывающей, в свою очередь, с объектом любви Ханаби. Ребята страдают от мучительной и запутанной любви и зализывают свои раны в объятиях друг друга.

Качество: BDRip
Тип релиза: Без хардсаба
Формат видео: MKV
Наличие линковки: Нет
Релиз/Автор рипа: собственный рип BDRemux'а
Видео: HEVC 8 bit 1280x720 (16:9) 23,976 fps ~5881 kb/s
Аудио:
JAP Vorbis 48000Hz ~256 Kbps
RUS 1-2 (ext) AAC, 48000Hz, ~192 Kbps, 2ch
GeneralUnique ID : 171795681369109791956505961270160192629 (0x813EA50B7C810077AFF3B33A60D0F475)Complete name : I:\Anime\Encoded\Kuzu no Honkai (720)\Kuzu no Honkai ep.01.mkvFormat : MatroskaFormat version : Version 2File size : 999 MiBDuration : 22 min 52 sOverall bit rate mode : VariableOverall bit rate : 6 106 kb/sEncoded date : UTC 2017-05-26 00:59:10Writing application : mkvmerge v9.9.0 ('Pick Up') 64bitWriting library : libebml v1.3.4 + libmatroska v1.4.5

VideoID : 1Format : HEVCFormat/Info : High Efficiency Video CodingFormat profile : Main@L4.1@HighCodec ID : V_MPEGH/ISO/HEVCDuration : 22 min 52 sBit rate : 5 881 kb/sWidth : 1 280 pixelsHeight : 720 pixelsDisplay aspect ratio : 16:9Frame rate mode : ConstantFrame rate : 23.976 (24000/1001) FPSColor space : YUVChroma subsampling : 4:2:0Bit depth : 8 bitsBits/(Pixel*Frame) : 0.266Stream size : 962 MiB (96%)Writing library : x265 2.3+41-6dc49dcff6da:[Windows][GCC 6.3.0][64 bit] 8bit+10bit+12bitEncoding settings : cpuid=1050111 / frame-threads=3 / numa-pools=8 / wpp / no-pmode / no-pme / no-psnr / no-ssim / log-level=2 / input-csp=1 / input-res=1280x720 / interlace=0 / total-frames=32898 / level-idc=41 / high-tier=1 / uhd-bd=0 / ref=5 / no-allow-non-conformance / no-repeat-headers / annexb / no-aud / no-hrd / info / hash=0 / no-temporal-layers / open-gop / min-keyint=1 / keyint=250 / bframes=10 / b-adapt=2 / b-pyramid / bframe-bias=0 / rc-lookahead=80 / lookahead-slices=0 / scenecut=40 / no-intra-refresh / ctu=32 / min-cu-size=8 / no-rect / no-amp / max-tu-size=32 / tu-inter-depth=2 / tu-intra-depth=2 / limit-tu=0 / rdoq-level=1 / dynamic-rd=4.00 / no-ssim-rd / signhide / no-tskip / nr-intra=0 / nr-inter=0 / no-constrained-intra / no-strong-intra-smoothing / max-merge=2 / limit-refs=0 / no-limit-modes / me=3 / subme=7 / merange=44 / temporal-mvp / weightp / weightb / no-analyze-src-pics / deblock=-2:-2 / no-sao / no-sao-non-deblock / rd=3 / no-early-skip / no-rskip / no-fast-intra / no-tskip-fast / no-cu-lossless / no-b-intra / rdpenalty=0 / psy-rd=2.50 / psy-rdoq=5.00 / no-rd-refine / analysis-mode=0 / no-lossless / cbqpoffs=0 / crqpoffs=0 / rc=crf / crf=15.0 / qcomp=0.75 / qpstep=4 / stats-write=0 / stats-read=0 / vbv-maxrate=50000 / vbv-bufsize=50000 / vbv-init=0.9 / crf-max=0.0 / crf-min=0.0 / ipratio=1.30 / pbratio=1.20 / aq-mode=3 / aq-strength=0.80 / no-cutree / zone-count=0 / no-strict-cbr / qg-size=8 / no-rc-grain / qpmax=51 / qpmin=0 / sar=0 / overscan=0 / videoformat=5 / range=0 / colorprim=2 / transfer=2 / colormatrix=2 / chromaloc=0 / display-window=0 / max-cll=0,0 / min-luma=0 / max-luma=255 / log2-max-poc-lsb=8 / vui-timing-info / vui-hrd-info / slices=1 / opt-qp-pps / opt-ref-list-length-pps / no-multi-pass-opt-rps / scenecut-bias=0.05 / no-opt-cu-delta-qp / aq-motion / no-hdr / no-hdr-opt / no-dhdr10-opt / refine-level=5 / no-limit-saoDefault : YesForced : No

AudioID : 2Format : VorbisFormat settings, Floor : 1Codec ID : A_VORBISDuration : 22 min 52 sBit rate mode : VariableBit rate : 256 kb/sChannel(s) : 2 channelsSampling rate : 48.0 kHzFrame rate : 92.681 FPS (518 spf)Compression mode : LossyStream size : 36.4 MiB (4%)Writing library : aoTuV 20110424 (UTC 2011-04-24)Language : JapaneseDefault : YesForced : No

Menu00:00:00.000 : en:00:00:00.00000:03:17.989 : en:00:03:17.98900:04:48.038 : en:00:04:48.03800:18:25.104 : en:00:18:25.10400:21:21.155 : en:00:21:21.155
01. Исполни желание
02. Мне нужно твоё тепло
03. Покажи мне любовь (а не мечту)
04. Гнилое яблоко
...5350930 - BDRip
...5340985 - BDRip
...5340561 - BDRip
...5381669 - 720p


Трекер:  [ 26-Май-2017 17:30 ]

  

Скачать .torrent

Размер .torrent файла 24 KB


Размер: 3.97 GB
Хэш (hash) релиза: 4614c06d0e48c0b0f812bb2d7907c92b7f761959
Подписка на обновления:

Торренты, похожие на Тайные желания отвергнутых Kuzu no Honkai скачать торрент

Форум Название Автор Размер S L Добавлен
Аниме | HD Rips ·· Тайные желания отвергнутых / Kuzu no Honkai / Scum's Wish (Андо Масаоми) [TV] [1-6 из 12] [без хардсаба] [RUS(ext), JAP+SUB] [2017, романтика, драма, школа, сейнен, BDRemux] [1080p] Galfimbul 4261399954939.69 GB 0 0 1497798121

18:02

18-Июн-17

Аниме | HD Rips ·· Тайные желания отвергнутых / Kuzu no Honkai / Scum`s Wish (Андо Масаоми) [TV] [12 из 12] [Без хардсаба] [JAP+SUB] [2017, романтика, драма, школа, сёнэн, WEBRip] [1080p] Galfimbul 67046368816.24 GB 0 0 1496966273

02:57

9-Июн-17

Аниме | HD Rips ·· Тайные желания отвергнутых / Kuzu no Honkai / Scum's Wish (Андо Масаоми) [TV] [1-4 из 12] [без хардсаба] [RUS(ext), JAP+SUB] [2017, романтика, драма, школа, сейнен, BDRemux] [1080p] Galfimbul 2804944665626.12 GB 0 0 1494774676

18:11

14-Май-17

Аниме | HD Rips ·· Тайные желания отвергнутых / Kuzu no Honkai / Scum's Wish (Андо Масаоми) [TV] [1-2 из 12] [без хардсаба] [RUS(ext), JAP+SUB] [2017, романтика, драма, школа, сейнен, BDRemux] [1080p] Galfimbul 1406788938213.1 GB 0 0 1490997574

00:59

1-Апр-17

Аниме | Rips ·· Тайные желания отвергнутых / Kuzu no Honkai / Scum's Wish [TV] [12 из 12] [Без хардсаба] [RUS(ext), JAP, SUB] [2017, Романтика, Драма, Школа, Сёнен, HDTVRip] [720p] Galfimbul 77584467707.23 GB 0 0 1490996772

00:46

1-Апр-17

Аниме | Rips ·· Тайные желания отвергнутых / Kuzu no Honkai / Scum's Wish [TV] [01-11 из 12] [Без хардсаба] [RUS(ext), JAP, SUB] [2017, Романтика, Драма, Школа, Сёнен, HDTVRip] [720p] Galfimbul 73206599246.82 GB 0 0 1490473828

23:30

25-Мар-17

Аниме | Rips ·· Тайные желания отвергнутых / Kuzu no Honkai / Scum's Wish [TV] [01-10 из 12] [Без хардсаба] [RUS(ext), JAP, SUB] [2017, Романтика, Драма, Школа, Сёнен, HDTVRip] [720p] Galfimbul 65876028036.14 GB 0 0 1489860495

21:08

18-Мар-17

Аниме | Rips ·· Тайные желания отвергнутых / Kuzu no Honkai / Scum's Wish [TV] [01-09 из 12] [Без хардсаба] [RUS(ext), JAP, SUB] [2017, Романтика, Драма, Школа, Сёнен, HDTVRip] [720p] Galfimbul 58835978905.48 GB 0 0 1489163375

19:29

10-Мар-17

Аниме | Rips ·· Тайные желания отвергнутых / Kuzu no Honkai / Scum's Wish [TV] [01-08 из 12] [Без хардсаба] [RUS(ext), JAP, SUB] [2017, Романтика, Драма, Школа, Сёнен, HDTVRip] [720p] Galfimbul 51732818544.82 GB 0 0 1488567755

22:02

3-Мар-17

Аниме | Rips ·· Тайные желания отвергнутых / Kuzu no Honkai / Scum's Wish [TV] [01-07 из 12] [Без хардсаба] [RUS(ext), JAP, SUB] [2017, Романтика, Драма, Школа, Сёнен, HDTVRip] [720p] Galfimbul 45405171404.23 GB 0 0 1488042118

20:01

25-Фев-17

Аниме | Rips ·· Тайные желания отвергнутых / Kuzu no Honkai / Scum's Wish [TV] [01-06 из 12] [Без хардсаба] [RUS(ext), JAP, SUB] [2017, Романтика, Драма, Школа, Сёнен, HDTVRip] [720p] Galfimbul 39850278533.71 GB 0 0 1487421536

15:38

18-Фев-17

Аниме | HD Rips ·· Тайные желания отвергнутых / Kuzu no Honkai / Scum`s Wish (Андо Масаоми) [TV] [4 из 12] [Без хардсаба] [JAP+SUB] [2017, романтика, драма, школа, сёнэн, WEBRip] [1080p] Galfimbul 22555003772.1 GB 0 0 1486871837

06:57

12-Фев-17

Аниме | Rips ·· Тайные желания отвергнутых / Kuzu no Honkai / Scum's Wish [TV] [01-05 из 12] [Без хардсаба] [RUS(ext), JAP, SUB] [2017, Романтика, Драма, Школа, Сёнен, HDTVRip] [720p] Galfimbul 32370405993.01 GB 0 0 1486850683

01:04

12-Фев-17

Аниме | Rips ·· Тайные желания отвергнутых / Kuzu no Honkai / Scum's Wish [TV] [01-04 из 12] [Без хардсаба] [RUS(ext), JAP, SUB] [2017, Романтика, Драма, Школа, Сёнен, HDTVRip] [720p] Galfimbul 24417212882.27 GB 0 0 1486154341

23:39

3-Фев-17

Аниме | Rips ·· Тайные желания отвергнутых / Kuzu no Honkai [TV] [01 из 11] [Без хардсаба] [RUS(int), JAP, SUB] [2017, романтика, школа, драма, сёнэн, HDTVRip] [720p] Galfimbul 548154876523 MB 0 0 1486067870

23:37

2-Фев-17

Аниме | Rips ·· Тайные желания отвергнутых / Kuzu no Honkai / Scum's Wish [TV] [01-03 из 12] [Без хардсаба] [RUS(ext), JAP, SUB] [2017, Романтика, Драма, Школа, Сёнен, HDTVRip] [720p] Galfimbul 16776908091.56 GB 0 0 1485543825

22:03

27-Янв-17

Аниме | Rips ·· Тайные желания отвергнутых / Kuzu no Honkai / Scum's Wish [TV] [01-02 из 12] [Без хардсаба] [RUS(ext), JAP, SUB] [2017, Романтика, Драма, Школа, Сёнен, HDTVRip] [720p] Galfimbul 11542751181.08 GB 0 0 1485106986

20:43

22-Янв-17

Аниме | Rips ·· Тайные желания отвергнутых / Kuzu no Honkai / Scum's Wish [TV] [01 из 12] [Без хардсаба] [RUS(ext), JAP, SUB] [2017, Романтика, Драма, Школа, Сёнен, HDTVRip] [720p] Galfimbul 631110333602 MB 0 0 1484590193

21:09

16-Янв-17

Аниме | Rips ·· Тайные желания отвергнутых / Kuzu no Honkai / Scum's Wish [TV] [01 из 12] [Без хардсаба] [RUS(ext), JAP, SUB] [2017, Романтика, Драма, Школа, Сёнен, HDTVRip] [720p] Galfimbul 597895140570 MB 0 0 1484586541

20:09

16-Янв-17

Еще никто не оставлял запись к записи скачать торрент Тайные желания отвергнутых Kuzu no Honkai . Будь первым!

!Обратная связь