Скачать через торрент Маг на полную ставку Quanzhi Fashi бесплатно Аниме Все серии на русском torrent

Если у вас наблюдаются проблемы со скриншотами, переходом по ссылками, скачиванием торрентов - проблемы в блокировщике рекламы AdBlock. #хорошегоДня!


Статистика раздачи
Размер:  384 MB   |    Зарегистрирован:  6 месяцев   |    .torrent скачан:  17 раз   |   
Раздают:  1  
   
Загрузка...
 
Автор Сообщение

Galfimbul

avatar Galfimbul


Маг на полную ставку | Quanzhi Fashi | Штатный волшебник全职法师
Страна: Китай
Год выпуска: 2016 г.
Жанр: приключения, фэнтези, комедия, школа
Тип: TV
Продолжительность: 12 эп. по ~20 мин.
Режиссер: Гуан Жен Ю
Студия:Русские субтитры: AniPlay
Перевод: Hikari_Licht
Редактура: Akein, OctupusОписание: Молодой юноша по-имени Мо Фан является учеником третьего класса средней школы, но не простой школы, а той, где обучают магии. Однажды, отдыхая в горах, Мо Фан встретил какого-то старика, который подарил ему необычный амулет. Этот амулет будто испускал магическую энергию и Мо Фан тут же заинтересовался волшебством. К сожалению он был весьма посредственным юношей, а его семья еле-еле сводила концы с концами. Но всё же благодаря знакомствам его отца, ему удалось поступить в академию, где обучают волшебству, однако там Мо Фан стал посмешищем. Мало того, что он был самым отстающим в группе, так еще все его хаяли за то, что попал он сюда по блату.

Тем не менее всё оказалось не так уж и плохо. Мо Фан в отличии от других, был весьма необычным молодым человеком. Во-первых он смог пробудить весьма редкий элемент магии - огонь. Но по-мимо этого произошло невероятное, Мо Фан смог пробудить второй элемент колдовства, что не смог сделать никто другой. И этим элементом оказалась молния, которая встречается у одного из миллиона учеников. Получив два сильнейших элемента он не стал задирать нос, а наоборот скрыл, что владеет еще и магией молнии.Качество: WEBRip
Тип релиза: Хардсаб (китайский)
Формат видео: MP4
Наличие линковки: Нет
Релиз/Автор рипа: UrbanTbc
Видео: x264 (8 bit), 1280x720, ~1296 Kbps, 23.976 fps
Аудио CHI: AAC, 48000 Hz, ~128 Kbps, 2 ch
Субтитры RUS: ASS, внешним файлом
Формат : MPEG-4Профиль формата : Base MediaИдентификатор кодека : isom (isom)Размер файла : 188 МбайтПродолжительность : 18 м. 23 с.Режим общего битрейта : ПеременныйОбщий поток : 1428 Кбит/секДата кодирования : UTC 2017-05-14 06:22:16Дата пометки : UTC 2017-05-14 06:22:16Программа кодирования : Yamb 2.1.0.0 [http://yamb.unite-video.com]

ВидеоИдентификатор : 1Формат : AVCФормат/Информация : Advanced Video CodecПрофиль формата : High@L3.1Параметр CABAC формата : ДаПараметр ReFrames формата : 4 кадраИдентификатор кодека : avc1Идентификатор кодека/Информация : Advanced Video CodingПродолжительность : 18 м. 23 с.Битрейт : 1296 Кбит/секМаксимальный битрейт : 5036 Кбит/секШирина : 1280 пикселейВысота : 720 пикселейСоотношение сторон : 16:9Режим частоты кадров : ПеременныйЧастота кадров : 23,976 (23976/1000) кадра/секМинимальная частота кадров : 17,373 кадров/секМаксимальная частота кадров : 23,975 кадра/секЦветовое пространство : YUVСубдискретизация насыщенности : 4:2:0Битовая глубина : 8 битТип развёртки : ПрогрессивнаяБит/(Пиксели*Кадры) : 0.059Размер потока : 171 Мбайт (91%)Дата пометки : UTC 2017-05-14 06:22:32

АудиоИдентификатор : 2Формат : AACФормат/Информация : Advanced Audio CodecПрофиль формата : LCИдентификатор кодека : 40Продолжительность : 18 м. 23 с.Вид битрейта : ПеременныйБитрейт : 128 Кбит/секМаксимальный битрейт : 132 Кбит/секКаналы : 2 каналаРасположение каналов : Front: L RЧастота : 48,0 КГцЧастота кадров : 46,875 кадров/сек (1024 spf)Метод сжатия : С потерямиРазмер потока : 16,8 Мбайт (9%)Язык : ChineseДата кодирования : UTC 2017-05-14 06:22:29Дата пометки : UTC 2017-05-14 06:22:32


Трекер:  [ 27-Май-2017 16:30 ]

  

Скачать .torrent

Размер .torrent файла 15 KB


Размер: 384 MB
Хэш (hash) релиза: f6b64bcde425cb9a9a24616a366cf7c3490c80fa
Подписка на обновления:

Еще никто не оставлял запись к записи скачать торрент Маг на полную ставку Quanzhi Fashi . Будь первым!

!Обратная связь