Скачать через торрент Санка Рэа бесплатно Аниме Все серии на русском torrent

Если у вас наблюдаются проблемы со скриншотами, переходом по ссылками, скачиванием торрентов - проблемы в блокировщике рекламы AdBlock. #хорошегоДня!


Статистика раздачи
Размер:  92.33 GB   |    Зарегистрирован:  6 месяцев   |    .torrent скачан:  25 раз   |   
Раздают:  1  
   
Загрузка...
 
Автор Сообщение

Galfimbul

avatar Galfimbul


Санка Рэа (ТВ) / Sankarea

Год выпуска: 2012
Страна: Япония
Жанр: комедия, романтика, мистика
Тип: TV
Продолжительность: 12 эп. по 25 мин., 1 спешал 25 мин.
Озвучка:

Одноголосая (муж) от Ryc99 эп. 1-12
Двухголосая (муж/жен) от Zendos/Ray & Eladiel (Anilibria)
Двухголосая (муж/жен) от Animan & JuliaBlack (Animedia) эп. 1-12
Двухголосая (муж/жен) от DemonOFmooN & MezIdA (Anifilm)
Двухголосая (муж/жен) от Faraway & Viki (SHIZA)
Двухголосая (муж/жен) от Flame & KroshkaRu (Opendub & SeM) эп. 1-12
Двухголосая (муж/жен) от Kasperok69 & Miori (WiaDub) эп. 1-12
Двухголосая (муж/жен) от Keita & Trina_D (AniDub)
Двухголосая (муж/жен) от loster01 & Emeri (Anipower/LE-Production)
Двухголосая (муж/жен) от MICHI & Moonslayer эп. 1-12

Русские субтитры: есть (отдельным файлом, формат .ass)
Перевод:

Hige-san, Mika, Kermit, AlenFuns [Deamers Team]

Хардсаб: НетРежиссер: Омата Синъити
Студия: Studio DEEN

Описание: 16-летний Тихиро Фуруя – сын буддистского священника и потому куда проще относится к сверхъестественному. Возможно, из-за ранней смерти матери парень с детства одержим темой зомби, возвращения из мертвых. Фуруя коллекционирует фильмы, мангу, фигурки и даже мечтает жить с… ну, вы поняли. Впрочем, одноклассники считают Тихиро суровым неформалом, а кузина Ранко находит его увлечение весьма романтичным. Вот только нелепая гибель домашнего кота надломила героя, и он решил оживить любимца тайным зельем из древнего манускрипта. Но это в кино все просто, а в честном аниме юному некроманту надо тренироваться, что он и делает по ночам в заброшенном доме. И вот однажды начинающему чернокнижнику послышался женский крик…

Крик шел от колодца во дворе и, присмотревшись, Фуруя узнал местную знаменитость – Рэа, первую красавицу и дочь директора женской академии Санка. Тихиро, как честный парень, не стал таиться, и вскоре ребята разговорились. Оказалось, Рэа иногда приходит в «проклятый дом», чтобы выкричать и выплакать грусть-тоску «девушки из высшего общества». Матери у нее тоже нет, а деспотичный отец контролирует каждый шаг дочери, делая ее жизнь невыносимой. Санка часто задумывалась о смерти как избавлении от кошмара, потому занятия Тихиро вызвали у нее не ужас, а неподдельный интерес. В итоге лукавая судьба дала молодым людям то, чего они хотели… или нет? Пускай теперь сами разбираются!
© Hollow, World Art

Качество: Blu-Ray Remux
Формат: MKV
Видео кодек: AVC
Аудио кодек: FLAC
Видео: 1920x1080 (16:9) 23,976 fps ~36,8 Mbps 8bit
Аудио:
Jap FLAC, 48000Hz, ~622 Kbps, 2ch
RUS 1-10 (ext) AAC/AC3, 48000Hz, ~192 Kbps, 2ch

Озвучка и субтитры взяты из этой раздачи.
Чаптеры присутствуют.
01. Если я... стану... зомби
02. Всё... удалось
03. Санка... Рэа
04. Обычная... девушка
05. Быть зомби... значит...
06. Потому что я... встретила тебя...
07. Подруга... детства...
08. Фальшивая... свобода...
09. Рука... матери...
10. Сильные... чувства...
11. Я не... специально...
12. И тогда... я...

SP. Я тоже... зомби...
Общее
Уникальный идентификатор : 250532546552055997797380942701901757901 (0xBC7AD0375DB79A10966470B0F915BDCD)
Полное имя : M:\pub\Video\Anime\Sankarea\TV\[anti-raws]Sankarea ep.01[BDRemux].mkv
Формат : Matroska
Версия формата : Version 4 / Version 2
Размер файла : 6,47 Гбайт
Продолжительность : 24 м. 11 с.
Режим общего битрейта : Переменный
Общий поток : 38,3 Мбит/сек
Дата кодирования : UTC 2017-05-31 17:21:28
Программа кодирования : mkvmerge v12.0.0 ('Trust / Lust') 64bit
Библиотека кодирования : libebml v1.3.4 + libmatroska v1.4.5

Видео
Идентификатор : 2
Формат : AVC
Формат/Информация : Advanced Video Codec
Профиль формата : High@L4.1
Параметр CABAC формата : Да
Параметр ReFrames формата : 4 кадра
Идентификатор кодека : V_MPEG4/ISO/AVC
Продолжительность : 24 м. 11 с.
Вид битрейта : Постоянный
Битрейт : 39,0 Мбит/сек
Ширина : 1920 пикселей
Высота : 1080 пикселей
Соотношение сторон : 16:9
Режим частоты кадров : Постоянный
Частота кадров : 23,976 (24000/1001) кадра/сек
Цветовое пространство : YUV
Субдискретизация насыщенности : 4:2:0
Битовая глубина : 8 бит
Тип развёртки : Прогрессивная
Бит/(Пиксели*Кадры) : 0.784
Размер потока : 6,37 Гбайт (98%)
Default : Нет
Forced : Нет

Аудио
Идентификатор : 1
Формат : FLAC
Формат/Информация : Free Lossless Audio Codec
Идентификатор кодека : A_FLAC
Продолжительность : 24 м. 11 с.
Вид битрейта : Переменный
Битрейт : 621 Кбит/сек
Каналы : 2 канала
Расположение каналов : Front: L R
Частота : 48,0 КГц
Частота кадров : 11,719 кадров/сек (4096 spf)
Битовая глубина : 16 бит
Размер потока : 108 Мбайт (2%)
Библиотека кодирования : libFLAC 1.2.1 (UTC 2007-09-17)
Язык : Japanese
Default : Да
Forced : Нет

Меню
00:00:00.000 : en:00:00:00.000
00:00:56.056 : en:00:00:56.056
00:02:25.854 : en:00:02:25.854
00:10:52.819 : en:00:10:52.819
00:22:09.828 : en:00:22:09.828
00:23:39.835 : en:00:23:39.835
...4018336
...4026502
...4017960
--HDTVRip

...4118197
...4297781
...4316373
--BDRip

Эта раздача - BDRemux


Трекер:  [ 31-Май-2017 21:30 ]

  

Скачать .torrent

Размер .torrent файла 134 KB


Размер: 92.33 GB
Хэш (hash) релиза: 481ec0afa21c3f514390afecb0c79b888e270d06
Подписка на обновления:

Торренты, похожие на Санка Рэа скачать торрент

Форум Название Автор Размер S L Добавлен
Аниме | HD Rips ·· Санка Рэа (ОВА) / Sankarea (Омата Синъити) [OVA] [2 из 2] [без хардсаба] [RUS(ext), JAP+SUB] [2012, комедия, романтика, мистика, BDRemux] [1080p] Galfimbul 1477894159213.76 GB 0 0 1499515320

15:02

8-Июл-17

Аниме | HD Rips ·· Санка Рэа (ОВА) / Sankarea (Омата Синъити) [OVA] [2 из 2] [без хардсаба] [RUS(ext), JAP+SUB] [2012 г., комедия, романтика, мистика, BDRip] [720p] Galfimbul 16127103621.5 GB 0 0 1413196650

13:37

13-Окт-14

Аниме | HD Rips ·· Санка Рэа (ТВ) / Sankarea (Омата Синъити) [TV+Special] [12+1 из 12+1] [без хардсаба] [RUS(ext), JAP+SUB] [2012 г., комедия, романтика, мистика, BDRip] [720p] Polarnik 1198807817611.16 GB 0 0 1379883501

23:58

22-Сен-13

Аниме | HD Rips ·· Санкареа / Санка Рэа / Sankarea [TV] [13 из 13] [Без хардсаба] [RUS(ext), JAP+SUB] [2012 г., комедия, романтика, мистика, BDRip] [1080p] Galfimbul 1172244877610.92 GB 0 0 1356703920

17:12

28-Дек-12

Аниме | HD Rips ·· Санкарея / Sankarea / Санка Рэа [TV] [1-12 из 12] [Без хардсаба] [JAP, RUS(ext), SUB] [2012 г., комедия, романтика, HDTVRip] [720p] Galfimbul 37257514013.47 GB 0 0 1342532460

16:41

17-Июл-12

Аниме | HD Rips ·· Санка Рэа / Sankarea [TV] [без хардсаба] [1-12 из 12] [RUS(int) JAP+SUB] [2012 г., комедия, романтика, мистика, HDTVRip] [720p] Polarnik 38880117173.62 GB 0 0 1341929220

17:07

10-Июл-12

Аниме | Rips ·· Санкареа ОВА / Санка Рэа / Sankarea OVA [OVA] [1 из 2] [Без хардсаба] [RUS(int), JAP, SUB] [2012 г., комедия, романтика, DVDRip] Polarnik 252752793241 MB 0 0 1341641580

09:13

7-Июл-12

Еще никто не оставлял запись к записи скачать торрент Санка Рэа . Будь первым!

!Обратная связь