Скачать через торрент Аниме-тренировки! XX Ani Tore! XX Hitotsu Yane no Shita de бесплатно Аниме Все серии на русском torrent

Если у вас наблюдаются проблемы со скриншотами, переходом по ссылками, скачиванием торрентов - проблемы в блокировщике рекламы AdBlock. #хорошегоДня!


Статистика раздачи
Размер:  12.6 GB   |    Зарегистрирован:  6 месяцев   |    .torrent скачан:  26 раз   |   
Раздают:  1  
   
Загрузка...
 
Автор Сообщение

Galfimbul

avatar Galfimbul


Аниме-тренировки XX / Ani Tore! XX Hitotsu Yane no Shita de

Год выпуска: 2016
Страна: Япония
Жанр: комедия
Тип: TV
Продолжительность: 12 эп. по 4 мин.
Озвучка: нет

Русские субтитры: есть (отдельным файлом, формат .ass)
Перевод:

Shaman Anime

Внимание! В сериях есть не переведённые моменты (вероятно, много дополнительного материала в BD-версии).

Хардсаб: НетРежиссер: Нигорикава Ацуси
Студия: Rising Force

Описание: Второй сезон фитнес-аниме про девушек, которые усердно тренируются, чтобы стать идолами. К уже известным персонажам присоединяется Сакура Идзуми, которая очень любит изображать из себя императрицу. В остальном всё по прежнему - нас ждут короткие зарисовки с объяснением упражнений и эффекта от них.

Качество: Blu-Ray Remux
Формат: MKV
Видео кодек: AVC
Аудио кодек: FLAC
Видео: 1920x1080 (16:9) 23,976 fps ~32 Mbps 8bit
Аудио:
Jap FLAC, 48000Hz, ~1489 Kbps, 2ch
01. Действуй ХХ! Уборка и боковой изгиб.
02. Действуй ХХ поезд?! Тренировка всегда везде.
03. Кувырок, Кувырок, упражнения на матах! ХХ всю дорогу.
04. Приятный ХХ пустоты! Начало конца.
05. Давайте тренироваться! ХХ растяжка и стремление к лидерству.
06. Балансировка на мяче! Я называю тебя моим ХХ.
07. Бег трусцой для освежающей аэробики! Большие ХХ ощущения.
08. Расслабляющий массаж! Давай сделаем ХХ вместе.
09. Скакалка разогревает! Не только твоё тело, но и ХХ...
10. Развейте свои проблемы отжиманиями и упражнениями для мышц спины! Дай ему свой ХХ.
11. Потренируйте ваши плечи с гантелями! ХХ заждался тебя.
12. Совместное проживание! Время начать ХХ.
Общее
Уникальный идентификатор : 234529049059540207293921708761557653141 (0xB070A6DF11558C3C9163114323D65695)
Полное имя : M:\incoming\Ani Tore! XX\[anti-raws]Ani Tore! XX Hitotsu Yane no Shita de ep.01[BDRemux].mkv
Формат : Matroska
Версия формата : Version 4 / Version 2
Размер файла : 1,05 Гбайт
Продолжительность : 4 м. 22 с.
Режим общего битрейта : Переменный
Общий поток : 34,3 Мбит/сек
Дата кодирования : UTC 2017-05-09 00:22:22
Программа кодирования : mkvmerge v11.0.0 ('Alive') 64bit
Библиотека кодирования : libebml v1.3.4 + libmatroska v1.4.5

Видео
Идентификатор : 2
Формат : AVC
Формат/Информация : Advanced Video Codec
Профиль формата : High@L4.1
Параметр CABAC формата : Да
Параметр ReFrames формата : 4 кадра
Идентификатор кодека : V_MPEG4/ISO/AVC
Продолжительность : 4 м. 22 с.
Вид битрейта : Переменный
Битрейт : 32,8 Мбит/сек
Максимальный битрейт : 40,0 Мбит/сек
Ширина : 1920 пикселей
Высота : 1080 пикселей
Соотношение сторон : 16:9
Режим частоты кадров : Постоянный
Частота кадров : 23,976 (24000/1001) кадра/сек
Цветовое пространство : YUV
Субдискретизация насыщенности : 4:2:0
Битовая глубина : 8 бит
Тип развёртки : Прогрессивная
Бит/(Пиксели*Кадры) : 0.659
Размер потока : 1,00 Гбайт (96%)
Default : Нет
Forced : Нет

Аудио
Идентификатор : 1
Формат : FLAC
Формат/Информация : Free Lossless Audio Codec
Идентификатор кодека : A_FLAC
Продолжительность : 4 м. 22 с.
Вид битрейта : Переменный
Битрейт : 1486 Кбит/сек
Каналы : 2 канала
Расположение каналов : Front: L R
Частота : 48,0 КГц
Частота кадров : 11,719 кадров/сек (4096 spf)
Битовая глубина : 24 бит
Размер потока : 46,5 Мбайт (4%)
Библиотека кодирования : libFLAC 1.2.1 (UTC 2007-09-17)
Язык : Japanese
Default : Да
Forced : Нет


Трекер:  [ 31-Май-2017 21:30 ]

  

Скачать .torrent

Размер .torrent файла 18 KB


Размер: 12.6 GB
Хэш (hash) релиза: 4a6db071f99c7e1957cf3cd2e261af31bfc4ab98
Подписка на обновления:

Торренты, похожие на Аниме-тренировки! XX Ani Tore! XX Hitotsu Yane no Shita de скачать торрент

Форум Название Автор Размер S L Добавлен
Аниме | Rips ·· Аниме-тренировки XX / Ani Tore! XX: Hitotsu Yane no Shita de [TV] [12 из 12] [Без хардсаба] [RUS(ext), JAP, SUB] [2016, Комедия, Спорт, HDTVRip] [720p] Galfimbul 1020629394973 MB 0 0 1484400825

16:33

14-Янв-17

Аниме | Rips ·· Аниме-тренировки XX / Ani Tore! XX: Hitotsu Yane no Shita de [TV] [12 из 12] [Без хардсаба] [RUS(ext), JAP, SUB] [2016, Комедия, Спорт, HDTVRip] [720p] Galfimbul 968602502924 MB 0 0 1482696134

23:02

25-Дек-16

Аниме | Rips ·· Аниме-тренировки XX / Ani Tore! XX: Hitotsu Yane no Shita de [TV] [12 из 12] [Без хардсаба] [RUS(ext), JAP] & [01-11 из 12] [SUB] [2016, Комедия, Спорт, HDTVRip] [720p] Galfimbul 951249137907 MB 0 0 1482498192

16:03

23-Дек-16

Аниме | Rips ·· Аниме-тренировки XX / Ani Tore! XX: Hitotsu Yane no Shita de [TV] [01-11 из 12] [Без хардсаба] [RUS(ext), JAP, SUB] [2016, Комедия, Спорт, HDTVRip] [720p] Galfimbul 877392597837 MB 0 0 1482081359

20:15

18-Дек-16

Аниме | Rips ·· Аниме-тренировки XX / Ani Tore! XX: Hitotsu Yane no Shita de [TV] [01-09 из 12] [Без хардсаба] [RUS(ext), JAP] & [01-08 из 12] [SUB] [2016, Комедия, Спорт, HDTVRip] [720p] Galfimbul 743203200709 MB 0 0 1480791621

22:00

3-Дек-16

Аниме | Rips ·· Аниме-тренировки XX / Ani Tore! XX: Hitotsu Yane no Shita de [TV] [01-08 из 12] [Без хардсаба] [RUS(ext), JAP] & [01-07 из 12] [SUB] [2016, Комедия, Спорт, HDTVRip] [720p] Galfimbul 655127954625 MB 0 0 1480173537

18:18

26-Ноя-16

Аниме | Rips ·· Аниме-тренировки XX / Ani Tore! XX: Hitotsu Yane no Shita de [TV] [01-07 из 12] [Без хардсаба] [RUS(ext), JAP] & [01-05 из 12] [SUB] [2016, Комедия, Спорт, HDTVRip] [720p] Galfimbul 574559538548 MB 0 0 1479705910

08:25

21-Ноя-16

Аниме | Rips ·· Аниме-тренировки XX / Ani Tore! XX: Hitotsu Yane no Shita de [TV] [01-06 из 12] [Без хардсаба] [RUS(ext), JAP] & [01-05 из 12] [SUB] [2016, Комедия, Спорт, HDTVRip] [720p] Galfimbul 467053550445 MB 0 0 1479036643

14:30

13-Ноя-16

Аниме | Rips ·· Аниме-тренировки XX / Ani Tore! XX: Hitotsu Yane no Shita de [TV] [01-05 из 12] [Без хардсаба] [RUS(ext), JAP, SUB] [2016, Комедия, Спорт, HDTVRip] [720p] Galfimbul 386586286369 MB 0 0 1478795909

19:38

10-Ноя-16

Аниме | Rips ·· Аниме-тренировки XX / Ani Tore! XX: Hitotsu Yane no Shita de [TV] [01-04 из 12] [Без хардсаба] [RUS(ext), JAP] & [01-03 из 12] [SUB] [2016, Комедия, Спорт, HDTVRip] [720p] Galfimbul 313976075299 MB 0 0 1478051965

04:59

2-Ноя-16

Аниме | Rips ·· Аниме-тренировки XX / Ani Tore! XX: Hitotsu Yane no Shita de [TV] [01-03 из 12] [Без хардсаба] [RUS(ext), JAP, SUB] [2016, Комедия, Спорт, HDTVRip] [720p] Galfimbul 248491634237 MB 0 0 1477253625

23:13

23-Окт-16

Аниме | Rips ·· Аниме-тренировки XX / Ani Tore! XX: Hitotsu Yane no Shita de [TV] [01-02 из 12] [Без хардсаба] [RUS(ext), JAP, SUB] [2016, Комедия, Спорт, HDTVRip] [720p] Galfimbul 176069982168 MB 0 0 1476982077

19:47

20-Окт-16

Аниме | Rips ·· Аниме-тренировки XX / Ani Tore! XX: Hitotsu Yane no Shita de [TV] [01 из 12] [Без хардсаба] [RUS(ext), JAP, SUB] [2016 г., Комедия, Спорт, HDTVRip] [720p] Galfimbul 7884109075 MB 0 0 1476243092

06:31

12-Окт-16

Аниме | Rips ·· Аниме-тренировки XX / Ani Tore! XX: Hitotsu Yane no Shita de [TV] [01 из 12] [Без хардсаба] [RUS(ext), JAP] [2016 г., Комедия, Спорт, HDTVRip] [720p] Galfimbul 7883028675 MB 0 0 1475864744

21:25

7-Окт-16

Еще никто не оставлял запись к записи скачать торрент Аниме-тренировки! XX Ani Tore! XX Hitotsu Yane no Shita de . Будь первым!

!Обратная связь