Скачать через торрент Евангелион: Смерть Evangelion: Deat бесплатно Аниме Все серии на русском torrent

Если у вас наблюдаются проблемы со скриншотами, переходом по ссылками, скачиванием торрентов - проблемы в блокировщике рекламы AdBlock. #хорошегоДня!


Статистика раздачи
Размер:  4.55 GB   |    Зарегистрирован:  6 месяцев   |    .torrent скачан:  13 раз   |   
Раздают:  1  
   
Загрузка...
 
Автор Сообщение

Galfimbul

avatar Galfimbul


Страна: Япония
Год выпуска: 1997
Жанр: драма, психология, фантастика, постапокалиптика, меха
Тип: Movie
Продолжительность: 73 мин
Режиссер: Хидэаки Анно, Масаюки
Студия: GAINAX
Озвучка/субтитры - есть (в контейнере)Описание: Evangelion: Death - это 70-минутная компиляция первых 24 эпизодов сериала Neon Genesis Evangelion, выполненная режиссером Масаюки. Фильм разделён на несколько частей, каждая из которых посвящена одному из центральных персонажей.
Появившись в кинотеатрах 15 марта 1997 года, показывался совместно с Rebirth (который в свою очередь, стал частью Air EoE). В нем было представлено несколько новых сцен, которые отсутствовали в оригинальном сериале. Некоторые из них, позднее были добавлены в качестве дополнительных материалов для эпизодов 21'-24'.
Позже фильм ещё несколько раз подвергался редактированию. Так появилась версия Death(true), транслировавшаяся на Японском спутниковом ТВ и Death(true)^2 которая вошла в состав Revival of Evangelion, вместе с End of EvangelionКачество: BDRip
Тип релиза: Без хардсаба
Формат видео: MKV
Наличие линковки: Нет
Релиз/Автор рипа: SephiroticВидео: x264, 1280x720, 7.8Мбит/с, 23.976fps, 8 bit
Аудио:
Аудио #1 JAP - 5.1, AAC, 6ch, 394 kb/s, 48000Hz
Аудио #2 JAP - AAC, 2ch, 144 kb/s, 48000Hz
Аудио #3 RUS - AC3, 6ch, 384 kb/s, 48000Hz - Евгения Лурье (одноголосая)

Субититры:
RUS - Teisuu
RUS - Константин Тимошенков
JAP
ENG
General
Unique ID : 198324816417330872923201266439318350138 (0x9533F8634EEA82CE841555B8E553293A)
Format : Matroska
Format version : Version 4 / Version 2
File size : 4.55 GiB
Duration : 1 h 13 min
Overall bit rate : 8 855 kb/s
Movie name : Neon Genesis Evangelion: Death (True)?
Encoded date : UTC 2017-05-24 07:53:00
Writing application : mkvmerge v9.8.0 ('Kuglblids') 64bit
Writing library : libebml v1.3.4 + libmatroska v1.4.5
Attachments : Lato-Bol.ttf / LT_C.ttf / LTFinnegan_MediumItalic_0.ttf / Paint-hand_limited-set.ttf / pencilfied.ttf / PIXEARG.TTF / BrushHandNew.ttf / DAYROM.ttf / FOT-MatissePro-EB.otf / JanieHmkBold.ttf / Jerry_B4s_handwriting.ttf / Latienne_Becker_Med_0.ttf / KozMinPro-Bold.otf / KozMinPro-Medium.otf / CALIBRI.TTF / CALIBRIB.TTF / CALIBRII.TTF / CALIBRIZ.TTF

Video
ID : 1
Format : AVC
Format/Info : Advanced Video Codec
Format profile : High@L5
Format settings, CABAC : Yes
Format settings, ReFrames : 12 frames
Codec ID : V_MPEG4/ISO/AVC
Duration : 1 h 13 min
Bit rate : 7 855 kb/s
Width : 1 280 pixels
Height : 720 pixels
Display aspect ratio : 16:9
Frame rate mode : Constant
Frame rate : 23.976 (24000/1001) FPS
Color space : YUV
Chroma subsampling : 4:2:0
Bit depth : 8 bits
Scan type : Progressive
Bits/(Pixel*Frame) : 0.355
Stream size : 4.03 GiB (89%)
Title : x264 8 bits 720p by Sephirotic
Writing library : x264 core 148 r2638 7599210
Encoding settings : cabac=1 / ref=12 / deblock=1:-1:-1 / analyse=0x3:0x133 / me=umh / subme=10 / psy=1 / psy_rd=1.00:0.00 / mixed_ref=1 / me_range=32 / chroma_me=1 / trellis=2 / 8x8dct=1 / cqm=0 / deadzone=21,11 / fast_pskip=0 / chroma_qp_offset=-2 / threads=2 / lookahead_threads=1 / sliced_threads=0 / nr=0 / decimate=0 / interlaced=0 / bluray_compat=0 / stitchable=1 / constrained_intra=0 / bframes=5 / b_pyramid=2 / b_adapt=2 / b_bias=0 / direct=3 / weightb=1 / open_gop=0 / weightp=2 / keyint=115 / keyint_min=11 / scenecut=100 / intra_refresh=0 / rc_lookahead=60 / rc=crf / mbtree=1 / crf=24.0 / qcomp=0.60 / qpmin=0 / qpmax=69 / qpstep=4 / ip_ratio=1.40 / aq=1:0.80
Language : Japanese
Default : Yes
Forced : No
Color range : Limited
Color primaries : BT.709

Audio #1
ID : 2
Format : AAC
Format/Info : Advanced Audio Codec
Format profile : LC
Codec ID : A_AAC
Duration : 1 h 13 min
Bit rate : 394 kb/s
Channel(s) : 6 channels
Channel positions : Front: L C R, Side: L R, LFE
Sampling rate : 48.0 kHz
Frame rate : 46.875 FPS (1024 spf)
Compression mode : Lossy
Delay relative to video : 20 ms
Stream size : 207 MiB (4%)
Title : Japanese 5.1 QAAC q0.82
Language : Japanese
Default : Yes
Forced : Yes

Audio #2
ID : 3
Format : AAC
Format/Info : Advanced Audio Codec
Format profile : LC
Codec ID : A_AAC
Duration : 1 h 13 min
Bit rate : 144 kb/s
Channel(s) : 2 channels
Channel positions : Front: L R
Sampling rate : 48.0 kHz
Frame rate : 46.875 FPS (1024 spf)
Compression mode : Lossy
Delay relative to video : 20 ms
Stream size : 75.6 MiB (2%)
Title : Japanese Legacy Stereo Q0.73
Language : Japanese
Default : No
Forced : No

Audio #3
ID : 4
Format : AC-3
Format/Info : Audio Coding 3
Mode extension : CM (complete main)
Format settings, Endianness : Big
Codec ID : A_AC3
Duration : 1 h 13 min
Bit rate mode : Constant
Bit rate : 384 kb/s
Channel(s) : 6 channels
Channel positions : Front: L C R, Side: L R, LFE
Sampling rate : 48.0 kHz
Frame rate : 31.250 FPS (1536 spf)
Bit depth : 16 bits
Compression mode : Lossy
Delay relative to video : 24 ms
Stream size : 202 MiB (4%)
Title : Russian: Евгения Лурье
Language : Russian
Default : No
Forced : No

Text #1
ID : 5
Format : ASS
Codec ID : S_TEXT/ASS
Codec ID/Info : Advanced Sub Station Alpha
Duration : 1 h 7 min
Bit rate : 116 b/s
Count of elements : 1030
Compression mode : Lossless
Stream size : 57.8 KiB (0%)
Title : English Standard Subtitles by Sephirotic v1.0
Language : English
Default : No
Forced : No

Text #2
ID : 6
Format : ASS
Codec ID : S_TEXT/ASS
Codec ID/Info : Advanced Sub Station Alpha
Duration : 1 h 1 min
Bit rate : 146 b/s
Count of elements : 935
Compression mode : Lossless
Stream size : 65.8 KiB (0%)
Title : Russian Subs (Teisuu)
Language : Russian
Default : Yes
Forced : No

Text #3
ID : 7
Format : UTF-8
Codec ID : S_TEXT/UTF8
Codec ID/Info : UTF-8 Plain Text
Duration : 1 h 7 min
Bit rate : 130 b/s
Count of elements : 1139
Stream size : 65.0 KiB (0%)
Title : Russian Subs (Константин Тимошенков)
Language : Russian
Default : No
Forced : No

Text #4
ID : 8
Format : PGS
Muxing mode : zlib
Codec ID : S_HDMV/PGS
Codec ID/Info : Picture based subtitle format used on BDs/HD-DVDs
Duration : 1 h 12 min
Bit rate : 37.1 kb/s
Count of elements : 4140
Stream size : 19.1 MiB (0%)
Title : Japanese Subtitles
Language : Japanese
Default : No
Forced : No


Трекер:  [ 11-Июн-2017 17:01 ]

  

Скачать .torrent

Размер .torrent файла 12 KB


Размер: 4.55 GB
Хэш (hash) релиза: 7e50145ec5f42d34c592cde94fc2638a9ee67fe1
Подписка на обновления:

Еще никто не оставлял запись к записи скачать торрент Евангелион: Смерть Evangelion: Deat . Будь первым!

!Обратная связь