Скачать через торрент Девушки и танки Girls und Panzer Gekijouban бесплатно Аниме Все серии на русском torrent

Если у вас наблюдаются проблемы со скриншотами, переходом по ссылками, скачиванием торрентов - проблемы в блокировщике рекламы AdBlock. #хорошегоДня!


Статистика раздачи
Размер:  12.92 GB   |    Зарегистрирован:  5 месяцев 27 дней   |    .torrent скачан:  27 раз   |   
Раздают:  1  
   
Загрузка...
 
Автор Сообщение

Galfimbul

avatar Galfimbul


Девушки и танки
Girls und Panzer Gekijouban
ガールズ&パンツァー 劇場版

Страна: Япония
Год выпуска: 2015 г.
Жанр: приключения, школа
Тип: Movie + Special
Продолжительность: ~120 мин. + 3 сп. по ~16 мин.
Режиссер: Ямада Наоко
Студия: Русские субтитры [Movie]
Перевод: Buka63Русские субтитры [Movie + Special 01]
Перевод: Elven_tankman | Редактура: KoushinОписание: После 63-го турнира Сэнся-до Японское Министерство образования решает закрыть женскую академию Оарай, несмотря на их недавний триумф на чемпионате. Чтобы сохранить академию, Михо и ее команда должны выиграть состязание против университетской команды в Сэнся-до. Для этого нелегкого сражения Михо и остальные обращаются за помощью к своим старым друзьям из других школ, а также к новым — из академии Тихатан и старшей школы Кэйдзоку. Вместе, они объединят усилия, чтобы спасти Оарай.Информационные ссылки: AniDB | MyAnimeList | World ArtКачество: BDRip
Тип релиза: Без хардсаба
Формат видео: MKV
Наличие линковки: Нет
Релиз/Автор рипа: Vladdrako [Beatrice-Raws]
Видео: x264, Hi10p, 1920x1080, 8167 Kbps, 23.976 fps
Аудио (int): JAP, FLAC, 48000 Hz, 1478 Kbps, 2 ch
Аудио (ext): JAP, FLAC, 48000 Hz, 3427 Kbps, 5.1 ch
Субтитры #1-2 (ext): Rus, ASS
<div class="sp-wrap">
<div class="sp-head folded">MediaInfo</div>
<div class="sp-body">

Формат : MatroskaВерсия формата : Version 4 / Version 2Размер файла : 8,12 ГбайтПродолжительность : 2 ч. 0 м.Режим общего битрейта : ПеременныйОбщий поток : 9667 Кбит/секДата кодирования : UTC 2016-06-04 11:09:19Программа кодирования : mkvmerge v9.2.0 ('Photograph') 64bitБиблиотека кодирования : libebml v1.3.3 + libmatroska v1.4.4

ВидеоИдентификатор : 1Формат : AVCФормат/Информация : Advanced Video CodecПрофиль формата : High 10@L5Параметр CABAC формата : ДаПараметр ReFrames формата : 4 кадраИдентификатор кодека : V_MPEG4/ISO/AVCПродолжительность : 2 ч. 0 м.Битрейт : 8166 Кбит/секШирина : 1920 пикселейВысота : 1080 пикселейСоотношение сторон : 16:9Режим частоты кадров : ПостоянныйЧастота кадров : 23,976 (24000/1001) кадра/секЦветовое пространство : YUVСубдискретизация насыщенности : 4:2:0Битовая глубина : 10 битТип развёртки : ПрогрессивнаяБит/(Пиксели*Кадры) : 0.164Размер потока : 6,86 Гбайт (84%)Заголовок : BDRip by VladdrakoБиблиотека кодирования : x264 core 148 (DJATOM's build)Настройки программы : cabac=1 / ref=4 / deblock=1:1:-1 / analyse=0x3:0x133 / me=umh / subme=9 / psy=1 / fade_compensate=0.00 / psy_rd=1.00:0.00 / mixed_ref=1 / me_range=32 / chroma_me=1 / trellis=2 / 8x8dct=1 / cqm=0 / deadzone=21,11 / fast_pskip=1 / chroma_qp_offset=-2 / threads=6 / lookahead_threads=1 / sliced_threads=0 / nr=0 / decimate=1 / interlaced=0 / bluray_compat=0 / constrained_intra=0 / bframes=9 / b_pyramid=2 / b_adapt=2 / b_bias=0 / direct=1 / weightb=1 / open_gop=0 / weightp=2 / keyint=250 / keyint_min=23 / scenecut=40 / intra_refresh=0 / rc=crf / mbtree=0 / crf=15.0000 / qcomp=0.72 / qpmin=0 / qpmax=81 / qpstep=4 / ip_ratio=1.40 / pb_ratio=1.30 / aq=1:0.85Язык : JapaneseDefault : ДаForced : НетЦветовой диапазон : LimitedОсновные цвета : BT.709Характеристики трансфера : BT.709Коэффициенты матрицы : BT.709

АудиоИдентификатор : 2Формат : FLACФормат/Информация : Free Lossless Audio CodecИдентификатор кодека : A_FLACПродолжительность : 2 ч. 0 м.Вид битрейта : ПеременныйБитрейт : 1478 Кбит/секКаналы : 2 каналаРасположение каналов : Front: L RЧастота : 48,0 КГцЧастота кадров : 11,719 кадров/сек (4096 spf)Битовая глубина : 24 битРазмер потока : 1,24 Гбайт (15%)Заголовок : LPCM->FLACБиблиотека кодирования : libFLAC 1.3.1 (UTC 2014-11-25)Язык : JapaneseDefault : ДаForced : Нет

ТекстИдентификатор : 3Формат : PGSРежим смешивания : zlibИдентификатор кодека : S_HDMV/PGSИдентификатор кодека/Информация : Picture based subtitle format used on BDs/HD-DVDsПродолжительность : 1 ч. 59 м.Битрейт : 20,6 Кбит/секElementCount : 4793Размер потока : 17,7 Мбайт (0%)Заголовок : Japanese SubtitlesЯзык : JapaneseDefault : НетForced : Нет

Меню00:00:00.000 : :Avant00:03:14.152 : :OP00:10:22.705 : :Part A00:26:13.863 : :Part B00:36:40.364 : :Part C00:44:09.188 : :Part D00:48:21.607 : :Part E00:53:50.518 : :Part F00:59:44.080 : :Part G01:05:11.782 : :Part H01:12:44.485 : :Part I01:14:15.659 : :Part J01:18:29.788 : :Part K01:19:50.202 : :Part L01:25:50.770 : :Part M01:31:26.731 : :Part N01:35:10.955 : :Part O01:38:15.472 : :Part P01:42:03.200 : :Part Q01:44:13.622 : :Part R01:48:22.245 : :Part S01:55:46.189 : :ED02:00:11.204 : :Fin
Duration: 02:00:11 (7211.25) Track #1: video (BDRip by Vladdrako) lang: jpn (2) codc: V_MPEG4/ISO/AVC -> H264/AVC (22) reso: 1920x1080 -> 16:9 fram: 23.976 fps rate: 8167 kbps (8166.53) dura: 02:00:11 (7211.2) size: 6.86 GB (7361318481) Track #2: audio (LPCM->FLAC) lang: jpn -> Japanese (2) codc: A_FLAC -> Other (15) chan: 2 -> Stereo samp: 48000 Hz rate: 1478 kbps (1478.30) dura: 02:00:11 (7211.18) size: 1.24 GB (1332534195) Track #3: subtitles (Japanese Subtitles) lang: jpn -> Japanese (2) type: S_HDMV/PGS -> Unknown (1) size: 17.70 MB (18560609) Sizes: (check sanity) disk: 8.12 GB (8714176799) trac: 4.11 GB (4417445989) [based on track size] bitr: 8.10 GB (8693857418) [based on bitrate] tdif: 4.00 GB (4296730810) 49.30% bdif: 19.38 MB (20319380) 0.23%
</div>
</div>
...5241134
BDRiphttp://rutracker.org/forum/viewtopic.php?t=5237691
1080p


Трекер:  [ 15-Июн-2017 08:01 ]

  

Скачать .torrent

Размер .torrent файла 20 KB


Размер: 12.92 GB
Хэш (hash) релиза: 8476adf709b3c17d78c1cd671a85d5e4f84c0f8c
Подписка на обновления:

Еще никто не оставлял запись к записи скачать торрент Девушки и танки Girls und Panzer Gekijouban . Будь первым!

!Обратная связь