Скачать через торрент Кошачьи дни Nyanko Days бесплатно Аниме Все серии на русском torrent

Если у вас наблюдаются проблемы со скриншотами, переходом по ссылками, скачиванием торрентов - проблемы в блокировщике рекламы AdBlock. #хорошегоДня!


Статистика раздачи
Размер:  7.4 GB   |    Зарегистрирован:  5 месяцев 25 дней   |    .torrent скачан:  42 раза   |   
Раздают:  1  
   
Загрузка...
 
Автор Сообщение

Galfimbul

avatar Galfimbul


Кошачьи дни / Nyanko Days

Год выпуска: 2017
Страна: Япония
Жанр: комедия, повседневность
Тип: TV
Продолжительность: 12 эп. по 2 мин.
Озвучка: нет

Русские субтитры: есть (отдельным файлом, формат .ass)
Перевод:

Aero, Helge, SeshaRim [YakuSub Studio]

Хардсаб: НетРежиссер: Ёсимаса Хирайкэ
Студия: EMT²

Описание: Томоко Конагай — робкая и стеснительная ученица старшей школы, а потому друзей среди людей у неё совсем немного. Однако Томоко — жуткая любительница кошек, и друзей среди кошек у неё на целых три больше: энергичная и весёлая Ма, умная и спокойная Ро, а также плакса-тихоня Ши. Все они живут под тёплой крышей Конагай и радуются жизни от всей души. Наблюдать за их необычными повседневными приключениями и смотреть, как же Томоко пытается завести друзей, — нам и предстоит.

Качество: Blu-Ray Remux
Формат: MKV
Видео кодек: AVC
Аудио кодек: FLAC
Видео: 1920x1080 (16:9) 23,976 fps ~35,5 Mbps 8bit
Аудио:
Jap FLAC, 48000Hz, ~675 Kbps, 2ch

Чаптеры присутствуют.
01. Я и мои котятки
02. Выходной с котятками 1
03. Выходной с котятками 2
04. Юуко и Азуми
05. Первые совместные посиделки
06. Азуми и Эльза
07. Кошачий день
08. Кошачий день 2
09. Ее зовут Ран
10. Тайны и Тсундэрэ
11. Давайте сходим на фестиваль
12. С моими кошками
Общее
Уникальный идентификатор : 224970725247552638292357202613192429127 (0xA93FC91F78E17ADD85EE076058FD0E47)
Полное имя : M:\pub\Video\Anime\Nyanko Days\[anti-raws]Nyanko Days ep.01[BDRemux].mkv
Формат : Matroska
Версия формата : Version 4 / Version 2
Размер файла : 535 Мбайт
Продолжительность : 2 м. 1 с.
Режим общего битрейта : Переменный
Общий поток : 37,0 Мбит/сек
Дата кодирования : UTC 2017-06-18 15:28:47
Программа кодирования : mkvmerge v12.0.0 ('Trust / Lust') 64bit
Библиотека кодирования : libebml v1.3.4 + libmatroska v1.4.5

Видео
Идентификатор : 2
Формат : AVC
Формат/Информация : Advanced Video Codec
Профиль формата : High@L4.1
Параметр CABAC формата : Да
Параметр ReFrames формата : 4 кадра
Идентификатор кодека : V_MPEG4/ISO/AVC
Продолжительность : 2 м. 1 с.
Вид битрейта : Переменный
Битрейт : 36,4 Мбит/сек
Максимальный битрейт : 40,0 Мбит/сек
Ширина : 1920 пикселей
Высота : 1080 пикселей
Соотношение сторон : 16:9
Режим частоты кадров : Постоянный
Частота кадров : 23,976 (24000/1001) кадра/сек
Цветовое пространство : YUV
Субдискретизация насыщенности : 4:2:0
Битовая глубина : 8 бит
Тип развёртки : Прогрессивная
Бит/(Пиксели*Кадры) : 0.732
Размер потока : 525 Мбайт (98%)
Default : Нет
Forced : Нет

Аудио
Идентификатор : 1
Формат : FLAC
Формат/Информация : Free Lossless Audio Codec
Идентификатор кодека : A_FLAC
Продолжительность : 2 м. 1 с.
Вид битрейта : Переменный
Битрейт : 673 Кбит/сек
Каналы : 2 канала
Расположение каналов : Front: L R
Частота : 48,0 КГц
Частота кадров : 11,719 кадров/сек (4096 spf)
Битовая глубина : 16 бит
Размер потока : 9,71 Мбайт (2%)
Библиотека кодирования : libFLAC 1.2.1 (UTC 2007-09-17)
Язык : Japanese
Default : Да
Forced : Нет

Меню
00:00:00.000 : en:00:00:00.000
...5385922
--WEBRip

Эта раздача - BDRemux


Трекер:  [ 18-Июн-2017 22:30 ]

  

Скачать .torrent

Размер .torrent файла 13 KB


Размер: 7.4 GB
Хэш (hash) релиза: eaad78f42397226adba8c2a1a54d02f425ea09ad
Подписка на обновления:

Еще никто не оставлял запись к записи скачать торрент Кошачьи дни Nyanko Days . Будь первым!

!Обратная связь