Скачать через торрент музыку Последний герой Панама Survivor Panama бесплатно без регистрации torrent

Если у вас наблюдаются проблемы со скриншотами, переходом по ссылками, скачиванием торрентов - проблемы в блокировщике рекламы AdBlock. #хорошегоДня!


Статистика раздачи
Размер:  313 MB   |    Зарегистрирован:  5 месяцев 24 дня   |    .torrent скачан:  28 раз   |   
Раздают:  1  
   
Загрузка...
 
Автор Сообщение

Galfimbul

avatar Galfimbul


Последний герой Панама / Survivor Panama (Exile Island)

Жанр: Score
Композитор: Russ Landau
Год выпуска диска: 2006

Аудиокодек: FLAC (*.flac)
Тип рипа: tracks+.cue
Битрейт аудио: lossless

Продолжительность: 0:57:22

Источник: what.cd
Наличие сканов в содержимом раздачи: нет

Треклист:
01. Ancient Voices S12 V3
02. The Arrival
03. The New World
04. King Gong
05. Haunted A&B
06. Goofy Boys
07. Meditator
08. Exile Challenge V1
09. Dancing Skeletons
10. Exilista!
11. The Oddessy
12. Dissent
13. Hunted
14. The Game is On
15. Light Exploration 1&2
16. Paranoid
17. Furious
18. My Island
19. Natures Peace
20. Pleasant Tasks
21. Hero's V2
22. No Consequences
23. Reason 2 Lie
24. Tentative
25. Rest
26. AV JungleDance
Exact Audio Copy V1.1 from 23. June 2015

EAC extraction logfile from 28. May 2016, 13:07

Russ Landau / Survivor: Panama (Exile Island)

Used drive : ASUS DRW-24B1ST c Adapter: 1 ID: 0

Read mode : SecureUtilize accurate stream : YesDefeat audio cache : YesMake use of C2 pointers : No

Read offset correction : 6Overread into Lead-In and Lead-Out : NoFill up missing offset samples with silence : YesDelete leading and trailing silent blocks : NoNull samples used in CRC calculations : YesUsed interface : Native Win32 interface for Win NT & 2000Gap handling : Appended to previous track

Used output format : User Defined EncoderSelected bitrate : 128 kBit/sQuality : HighAdd ID3 tag : NoCommand line compressor : D:\Dropbox\Applications\Exact Audio Copy\flac.exeAdditional command line options : -8 -e -V -T "ARTIST=%artist%" -T "TITLE=%title%" -T "ALBUM=%albumtitle%" -T "DATE=%year%" -T "TRACKNUMBER=%tracknr%" -T "GENRE=%genre%" -T "PERFORMER=%albuminterpret%" -T "COMPOSER=%composer%" %haslyrics%--tag-from-file=LYRICS="%lyricsfile%"%haslyrics% -T "ALBUMARTIST=%albumartist%" -T "DISCNUMBER=%cdnumber%" -T "TOTALDISCS=%totalcds%" -T "TOTALTRACKS=%numtracks%" -T "COMMENT=%comment%" %source% -o %dest%

TOC of the extracted CD

Track | Start | Length | Start sector | End sector --------------------------------------------------------- 1 | 0:00.00 | 1:05.40 | 0 | 4914 2 | 1:05.40 | 1:20.38 | 4915 | 10952 3 | 2:26.03 | 1:32.54 | 10953 | 17906 4 | 3:58.57 | 2:15.00 | 17907 | 28031 5 | 6:13.57 | 2:14.29 | 28032 | 38110 6 | 8:28.11 | 2:14.38 | 38111 | 48198 7 | 10:42.49 | 2:31.30 | 48199 | 59553 8 | 13:14.04 | 6:44.39 | 59554 | 89892 9 | 19:58.43 | 1:38.00 | 89893 | 97242 10 | 21:36.43 | 2:03.74 | 97243 | 106541 11 | 23:40.42 | 1:20.38 | 106542 | 112579 12 | 25:01.05 | 2:39.42 | 112580 | 124546 13 | 27:40.47 | 1:36.06 | 124547 | 131752 14 | 29:16.53 | 1:10.38 | 131753 | 137040 15 | 30:27.16 | 2:09.34 | 137041 | 146749 16 | 32:36.50 | 1:59.00 | 146750 | 155674 17 | 34:35.50 | 1:38.36 | 155675 | 163060 18 | 36:14.11 | 1:35.62 | 163061 | 170247 19 | 37:49.73 | 2:24.51 | 170248 | 181098 20 | 40:14.49 | 2:28.51 | 181099 | 192249 21 | 42:43.25 | 1:43.28 | 192250 | 200002 22 | 44:26.53 | 2:12.45 | 200003 | 209947 23 | 46:39.23 | 2:22.00 | 209948 | 220597 24 | 49:01.23 | 2:44.51 | 220598 | 232948 25 | 51:45.74 | 1:17.00 | 232949 | 238723 26 | 53:02.74 | 4:19.04 | 238724 | 258152

Track 1

Filename D:\Uploads\Russ Landau - 2006 - Survivor Panama (Exile Island) [FLAC]\01 - Ancient Voices S12 V3.wav

Pre-gap length 0:00:02.00

Peak level 87.3 % Extraction speed 3.9 X Track quality 100.0 % Test CRC AD11A152 Copy CRC AD11A152 Track not present in AccurateRip database Copy OK

Track 2

Filename D:\Uploads\Russ Landau - 2006 - Survivor Panama (Exile Island) [FLAC]\02 - The Arrival.wav

Peak level 90.6 % Extraction speed 4.2 X Track quality 100.0 % Test CRC 44C74FA7 Copy CRC 44C74FA7 Track not present in AccurateRip database Copy OK

Track 3

Filename D:\Uploads\Russ Landau - 2006 - Survivor Panama (Exile Island) [FLAC]\03 - The New World.wav

Peak level 82.3 % Extraction speed 4.7 X Track quality 100.0 % Test CRC C6044D85 Copy CRC C6044D85 Track not present in AccurateRip database Copy OK

Track 4

Filename D:\Uploads\Russ Landau - 2006 - Survivor Panama (Exile Island) [FLAC]\04 - King Gong.wav

Peak level 100.0 % Extraction speed 5.3 X Track quality 100.0 % Test CRC 860DB497 Copy CRC 860DB497 Track not present in AccurateRip database Copy OK

Track 5

Filename D:\Uploads\Russ Landau - 2006 - Survivor Panama (Exile Island) [FLAC]\05 - Haunted A&B.wav

Peak level 100.0 % Extraction speed 5.5 X Track quality 100.0 % Test CRC 899934A4 Copy CRC 899934A4 Track not present in AccurateRip database Copy OK

Track 6

Filename D:\Uploads\Russ Landau - 2006 - Survivor Panama (Exile Island) [FLAC]\06 - Goofy Boys.wav

Peak level 100.0 % Extraction speed 5.7 X Track quality 100.0 % Test CRC F1098CDF Copy CRC F1098CDF Track not present in AccurateRip database Copy OK

Track 7

Filename D:\Uploads\Russ Landau - 2006 - Survivor Panama (Exile Island) [FLAC]\07 - Meditator.wav

Peak level 100.0 % Extraction speed 4.7 X Track quality 99.9 % Test CRC E013DAC4 Copy CRC E013DAC4 Track not present in AccurateRip database Copy OK

Track 8

Filename D:\Uploads\Russ Landau - 2006 - Survivor Panama (Exile Island) [FLAC]\08 - Exile Challenge V1.wav

Peak level 100.0 % Extraction speed 7.5 X Track quality 100.0 % Test CRC 90AA444D Copy CRC 90AA444D Track not present in AccurateRip database Copy OK

Track 9

Filename D:\Uploads\Russ Landau - 2006 - Survivor Panama (Exile Island) [FLAC]\09 - Dancing Skeletons.wav

Peak level 87.0 % Extraction speed 6.3 X Track quality 100.0 % Test CRC 34538850 Copy CRC 34538850 Track not present in AccurateRip database Copy OK

Track 10

Filename D:\Uploads\Russ Landau - 2006 - Survivor Panama (Exile Island) [FLAC]\10 - Exilista!.wav

Peak level 98.9 % Extraction speed 6.7 X Track quality 100.0 % Test CRC E3C2F8D2 Copy CRC E3C2F8D2 Track not present in AccurateRip database Copy OK

Track 11

Filename D:\Uploads\Russ Landau - 2006 - Survivor Panama (Exile Island) [FLAC]\11 - The Oddessy.wav

Peak level 95.4 % Extraction speed 6.0 X Track quality 100.0 % Test CRC 9A22284C Copy CRC 9A22284C Track not present in AccurateRip database Copy OK

Track 12

Filename D:\Uploads\Russ Landau - 2006 - Survivor Panama (Exile Island) [FLAC]\12 - Dissent.wav

Peak level 100.0 % Extraction speed 7.3 X Track quality 100.0 % Test CRC CC838947 Copy CRC CC838947 Track not present in AccurateRip database Copy OK

Track 13

Filename D:\Uploads\Russ Landau - 2006 - Survivor Panama (Exile Island) [FLAC]\13 - Hunted.wav

Peak level 73.8 % Extraction speed 6.7 X Track quality 100.0 % Test CRC 7B214A81 Copy CRC 7B214A81 Track not present in AccurateRip database Copy OK

Track 14

Filename D:\Uploads\Russ Landau - 2006 - Survivor Panama (Exile Island) [FLAC]\14 - The Game is On.wav

Peak level 98.3 % Extraction speed 6.1 X Track quality 100.0 % Test CRC 646F32B8 Copy CRC 646F32B8 Track not present in AccurateRip database Copy OK

Track 15

Filename D:\Uploads\Russ Landau - 2006 - Survivor Panama (Exile Island) [FLAC]\15 - Light Exploration 1&2.wav

Peak level 95.6 % Extraction speed 5.4 X Track quality 99.9 % Test CRC 87430D00 Copy CRC 87430D00 Track not present in AccurateRip database Copy OK

Track 16

Filename D:\Uploads\Russ Landau - 2006 - Survivor Panama (Exile Island) [FLAC]\16 - Paranoid.wav

Peak level 96.1 % Extraction speed 7.4 X Track quality 100.0 % Test CRC E17A9419 Copy CRC E17A9419 Track not present in AccurateRip database Copy OK

Track 17

Filename D:\Uploads\Russ Landau - 2006 - Survivor Panama (Exile Island) [FLAC]\17 - Furious.wav

Peak level 99.0 % Extraction speed 7.0 X Track quality 100.0 % Test CRC 6C0F88EE Copy CRC 6C0F88EE Track not present in AccurateRip database Copy OK

Track 18

Filename D:\Uploads\Russ Landau - 2006 - Survivor Panama (Exile Island) [FLAC]\18 - My Island.wav

Peak level 85.8 % Extraction speed 7.1 X Track quality 100.0 % Test CRC 15C9EC42 Copy CRC 15C9EC42 Track not present in AccurateRip database Copy OK

Track 19

Filename D:\Uploads\Russ Landau - 2006 - Survivor Panama (Exile Island) [FLAC]\19 - Natures Peace.wav

Peak level 100.0 % Extraction speed 8.0 X Track quality 100.0 % Test CRC EE055FA2 Copy CRC EE055FA2 Track not present in AccurateRip database Copy OK

Track 20

Filename D:\Uploads\Russ Landau - 2006 - Survivor Panama (Exile Island) [FLAC]\20 - Pleasant Tasks.wav

Peak level 100.0 % Extraction speed 8.3 X Track quality 100.0 % Test CRC 363255A3 Copy CRC 363255A3 Track not present in AccurateRip database Copy OK

Track 21

Filename D:\Uploads\Russ Landau - 2006 - Survivor Panama (Exile Island) [FLAC]\21 - Hero's V2.wav

Peak level 99.3 % Extraction speed 7.7 X Track quality 100.0 % Test CRC 01879231 Copy CRC 01879231 Track not present in AccurateRip database Copy OK

Track 22

Filename D:\Uploads\Russ Landau - 2006 - Survivor Panama (Exile Island) [FLAC]\22 - No Consequences.wav

Peak level 100.0 % Extraction speed 8.4 X Track quality 100.0 % Test CRC 9CC7EC00 Copy CRC 9CC7EC00 Track not present in AccurateRip database Copy OK

Track 23

Filename D:\Uploads\Russ Landau - 2006 - Survivor Panama (Exile Island) [FLAC]\23 - Reason 2 Lie.wav

Peak level 100.0 % Extraction speed 8.5 X Track quality 100.0 % Test CRC 6C7D1A26 Copy CRC 6C7D1A26 Track not present in AccurateRip database Copy OK

Track 24

Filename D:\Uploads\Russ Landau - 2006 - Survivor Panama (Exile Island) [FLAC]\24 - Tentative.wav

Peak level 100.0 % Extraction speed 6.9 X Track quality 99.9 % Test CRC 80F6F158 Copy CRC 80F6F158 Track not present in AccurateRip database Copy OK

Track 25

Filename D:\Uploads\Russ Landau - 2006 - Survivor Panama (Exile Island) [FLAC]\25 - Rest.wav

Peak level 99.2 % Extraction speed 4.8 X Track quality 99.8 % Test CRC 8DB32BCA Copy CRC 8DB32BCA Track not present in AccurateRip database Copy OK

Track 26

Filename D:\Uploads\Russ Landau - 2006 - Survivor Panama (Exile Island) [FLAC]\26 - AV JungleDance.wav

Peak level 98.0 % Extraction speed 9.8 X Track quality 100.0 % Test CRC C8DEEAAA Copy CRC C8DEEAAA Track not present in AccurateRip database Copy OK

None of the tracks are present in the AccurateRip database

No errors occurred

End of status report

---- CUETools DB Plugin V2.1.6

[CTDB TOCID: vtsAIHINtfpmKC7RYsiQTbXBb0A-] disk not present in databaseSubmit result: vtsAIHINtfpmKC7RYsiQTbXBb0A- has been uploaded

==== Log checksum D867FAAF2E06A5BC21345A0289C8031D6B5D12CAA6B9E49ECD902B1262D3E322 ====
REM DATE 2006REM DISCID 6D0D721AREM COMMENT "ExactAudioCopy v1.1"PERFORMER "Russ Landau"TITLE "Survivor: Panama (Exile Island)"FILE "01 - Ancient Voices S12 V3.wav" WAVE TRACK 01 AUDIO TITLE "Ancient Voices S12 V3" PERFORMER "Russ Landau" INDEX 01 00:00:00FILE "02 - The Arrival.wav" WAVE TRACK 02 AUDIO TITLE "The Arrival" PERFORMER "Russ Landau" INDEX 01 00:00:00FILE "03 - The New World.wav" WAVE TRACK 03 AUDIO TITLE "The New World" PERFORMER "Russ Landau" INDEX 01 00:00:00FILE "04 - King Gong.wav" WAVE TRACK 04 AUDIO TITLE "King Gong" PERFORMER "Russ Landau" INDEX 01 00:00:00FILE "05 - Haunted A&B.wav" WAVE TRACK 05 AUDIO TITLE "Haunted A&B" PERFORMER "Russ Landau" INDEX 01 00:00:00FILE "06 - Goofy Boys.wav" WAVE TRACK 06 AUDIO TITLE "Goofy Boys" PERFORMER "Russ Landau" INDEX 01 00:00:00FILE "07 - Meditator.wav" WAVE TRACK 07 AUDIO TITLE "Meditator" PERFORMER "Russ Landau" INDEX 01 00:00:00FILE "08 - Exile Challenge V1.wav" WAVE TRACK 08 AUDIO TITLE "Exile Challenge V1" PERFORMER "Russ Landau" INDEX 01 00:00:00FILE "09 - Dancing Skeletons.wav" WAVE TRACK 09 AUDIO TITLE "Dancing Skeletons" PERFORMER "Russ Landau" INDEX 01 00:00:00FILE "10 - Exilista!.wav" WAVE TRACK 10 AUDIO TITLE "Exilista!" PERFORMER "Russ Landau" INDEX 01 00:00:00FILE "11 - The Oddessy.wav" WAVE TRACK 11 AUDIO TITLE "The Oddessy" PERFORMER "Russ Landau" INDEX 01 00:00:00FILE "12 - Dissent.wav" WAVE TRACK 12 AUDIO TITLE "Dissent" PERFORMER "Russ Landau" INDEX 01 00:00:00FILE "13 - Hunted.wav" WAVE TRACK 13 AUDIO TITLE "Hunted" PERFORMER "Russ Landau" INDEX 01 00:00:00FILE "14 - The Game is On.wav" WAVE TRACK 14 AUDIO TITLE "The Game is On" PERFORMER "Russ Landau" INDEX 01 00:00:00FILE "15 - Light Exploration 1&2.wav" WAVE TRACK 15 AUDIO TITLE "Light Exploration 1&2" PERFORMER "Russ Landau" INDEX 01 00:00:00FILE "16 - Paranoid.wav" WAVE TRACK 16 AUDIO TITLE "Paranoid" PERFORMER "Russ Landau" INDEX 01 00:00:00FILE "17 - Furious.wav" WAVE TRACK 17 AUDIO TITLE "Furious" PERFORMER "Russ Landau" INDEX 01 00:00:00FILE "18 - My Island.wav" WAVE TRACK 18 AUDIO TITLE "My Island" PERFORMER "Russ Landau" INDEX 01 00:00:00FILE "19 - Natures Peace.wav" WAVE TRACK 19 AUDIO TITLE "Natures Peace" PERFORMER "Russ Landau" INDEX 01 00:00:00FILE "20 - Pleasant Tasks.wav" WAVE TRACK 20 AUDIO TITLE "Pleasant Tasks" PERFORMER "Russ Landau" INDEX 01 00:00:00FILE "21 - Hero's V2.wav" WAVE TRACK 21 AUDIO TITLE "Hero's V2" PERFORMER "Russ Landau" INDEX 01 00:00:00FILE "22 - No Consequences.wav" WAVE TRACK 22 AUDIO TITLE "No Consequences" PERFORMER "Russ Landau" INDEX 01 00:00:00FILE "23 - Reason 2 Lie.wav" WAVE TRACK 23 AUDIO TITLE "Reason 2 Lie" PERFORMER "Russ Landau" INDEX 01 00:00:00FILE "24 - Tentative.wav" WAVE TRACK 24 AUDIO TITLE "Tentative" PERFORMER "Russ Landau" INDEX 01 00:00:00FILE "25 - Rest.wav" WAVE TRACK 25 AUDIO TITLE "Rest" PERFORMER "Russ Landau" INDEX 01 00:00:00FILE "26 - AV JungleDance.wav" WAVE TRACK 26 AUDIO TITLE "AV JungleDance" PERFORMER "Russ Landau" INDEX 01 00:00:00


Трекер:  [ 20-Июн-2017 23:06 ]

  

Скачать .torrent

Размер .torrent файла 14 KB


Размер: 313 MB
Хэш (hash) релиза: f300c9fd67b95ca30f9cda605006a9a2debbd678

Еще никто не оставлял запись к записи скачать торрент Последний герой Панама Survivor Panama . Будь первым!

!Обратная связь