Скачать через торрент Звучи! Эуфониум 2 Hibike! Euphonium 2 бесплатно Аниме Все серии на русском torrent

Если у вас наблюдаются проблемы со скриншотами, переходом по ссылками, скачиванием торрентов - проблемы в блокировщике рекламы AdBlock. #хорошегоДня!


Статистика раздачи
Размер:  27.28 GB   |    Зарегистрирован:  5 месяцев 22 дня   |    .torrent скачан:  20 раз   |   
Раздают:  1  
   
Загрузка...
 
Автор Сообщение

Galfimbul

avatar Galfimbul


Звучи! Эуфониум 2 / Hibike! Euphonium 2 / Sound! Euphonium 2

Страна: Япония
Год выпуска: 2016 г.
Жанр: Повседневность, музыкальный, школа
Тип: TV
Продолжительность: ≈ 48 мин. (1 эп.), ≈ 24 мин. (2-13 эп.), ≈ 3 мин (спэшлы)
Режиссер: Исихара Тацуя
Студия: Kyoto Animation
Описание: Для Кумико Омаэ первая весна в старшей школе обещала много интересных изменений в её жизни. В первую очередь, в жизни творческой. Её умелая игра на эуфониуме как нельзя кстати пришлась ансамблю старшей школы Китаудзи. Сплочённый коллектив под руководством талантливого и вдохновляющего учителя Таки Нобору смог победить в конкурсе. А значит, впереди их ждут испытания более серьёзные – национальные соревнования музыкальных групп.

Естественно, теперь команда работала по принципу «меньше слов, больше дела». Отдых и прочие мелочи жизни были непозволительной роскошью для юных музыкантов. Так как такой шанс давно не выпадал, все усердно трудились, чтобы не посрамить свою школу. Но, как это обычно бывает в больших компаниях, без интриг и разногласий никак обойтись не могло. Пока ребята разбирались с прошлым, которое вот так нагло постучало к ним в дверь, кажется, они позабыли, что сейчас нужно всерьёз позаботиться о будущем.
© Dreamfighter, World ArtИнформация об аниме на World Art | AniDB | MyAnimeListКачество: BDRip | Автор Rip'a: [ReinForce]
Тип релиза: Без хардсаба
Формат видео: MKV
Наличие линковки: Нет
Видео: MPEG4 h.264, 1920x1080, 8bit, 23,976 fps, ≈ 8865 kbps
Аудио: FLAC (Внутри контейнера), ≈ 1349 kbps, 48000 Hz, stereo (2 ch), Язык: японский
Озвучка: Многоголосая (оригинал)
Субтитры: ASS, внешние, русские: [Sa4ko aka Kiyoso & Zenobian], [Ambiente]Добавлены эпизоды 12 и 13. Обновите торрент.
Vol. 1 - 21 декабря
Vol. 2 - 18 января
Vol. 3 - 15 февраля
Vol. 4 - 15 марта
Vol. 5 - 19 апреля
Vol. 6 - 17 мая
Vol. 7 - 21 июня
<div class="sp-wrap">
<div class="sp-head folded">1 эпизод</div>
<div class="sp-body">
<div class="sp-wrap">
<div class="sp-head folded">Avdump</div>
<div class="sp-body">

File: E:\Раздачи\Аниме\[ReinForce] Hibike! Euphonium 2 (BDRip 1920x1080 x264 FLAC)\[ReinForce] Hibike! Euphonium 2 - 01 (BDRip 1920x1080 x264 FLAC).mkv Duration: 00:47:43 (2863.36) Track #1: video lang: und (1) codc: V_MPEG4/ISO/AVC -> H264/AVC (22) reso: 1920x1080 -> 16:9 fram: 23.976 fps rate: 8865 kbps (8864.71) dura: 00:47:43 (2863.32) size: 2.95 GB (3172813320) Track #2: audio lang: jpn -> Japanese (2) codc: A_FLAC -> Other (15) chan: 2 -> Stereo samp: 48000 Hz rate: 1349 kbps (1349.46) dura: 00:47:43 (2863.30) size: 460.61 MB (482988415) Sizes: (check sanity) disk: 3.41 GB (3656444520) trac: 3.40 GB (3655801735) [based on track size] bitr: 3.40 GB (3655805565) [based on bitrate] tdif: 627.72 KB (642785) 0.01% bdif: 623.98 KB (638954) 0.01%
ОбщееУникальный идентификатор : 244228162016105036478797404570161494814 (0xB7BCA20F7EEDD9BAF023D62B36F7BB1E)Полное имя : E:\Раздачи\Аниме\[ReinForce] Hibike! Euphonium 2 (BDRip 1920x1080 x264 FLAC)\[ReinForce] Hibike! Euphonium 2 - 01 (BDRip 1920x1080 x264 FLAC).mkvФормат : MatroskaВерсия формата : Version 4 / Version 2Размер файла : 3,41 ГбайтПродолжительность : 47 м. 43 с.Режим общего битрейта : ПеременныйОбщий поток : 10,2 Мбит/секДата кодирования : UTC 2016-12-22 13:17:07Программа кодирования : mkvmerge v9.6.0 ('Slave To Your Mind') 64bitБиблиотека кодирования : libebml v1.3.4 + libmatroska v1.4.5

ВидеоИдентификатор : 1Формат : AVCФормат/Информация : Advanced Video CodecПрофиль формата : High@L4Параметр CABAC формата : ДаПараметр ReFrames формата : 4 кадраИдентификатор кодека : V_MPEG4/ISO/AVCПродолжительность : 47 м. 43 с.Битрейт : 8865 Кбит/секШирина : 1920 пикселейВысота : 1080 пикселейСоотношение сторон : 16:9Режим частоты кадров : ПостоянныйЧастота кадров : 23,976 (24000/1001) кадра/секЦветовое пространство : YUVСубдискретизация насыщенности : 4:2:0Битовая глубина : 8 битТип развёртки : ПрогрессивнаяБит/(Пиксели*Кадры) : 0.178Размер потока : 2,95 Гбайт (87%)Библиотека кодирования : x264 core 148Настройки программы : opencl=1 / cabac=1 / ref=4 / deblock=1:-2:-2 / analyse=0x3:0x113 / me=umh / subme=9 / psy=1 / psy_rd=0.70:0.00 / mixed_ref=0 / me_range=32 / chroma_me=1 / trellis=2 / 8x8dct=1 / cqm=0 / deadzone=21,11 / fast_pskip=1 / chroma_qp_offset=-2 / threads=8 / lookahead_threads=1 / sliced_threads=0 / nr=0 / decimate=1 / interlaced=0 / bluray_compat=0 / constrained_intra=0 / bframes=9 / b_pyramid=2 / b_adapt=2 / b_bias=0 / direct=3 / weightb=1 / open_gop=0 / weightp=2 / keyint=250 / keyint_min=23 / scenecut=40 / intra_refresh=0 / rc_lookahead=40 / rc=crf / mbtree=1 / crf=16.0 / qcomp=0.70 / qpmin=10 / qpmax=20 / qpstep=4 / ip_ratio=1.40 / aq=1:1.00Default : ДаForced : Нет

АудиоИдентификатор : 2Формат : FLACФормат/Информация : Free Lossless Audio CodecИдентификатор кодека : A_FLACПродолжительность : 47 м. 43 с.Вид битрейта : ПеременныйБитрейт : 1349 Кбит/секКаналы : 2 каналаРасположение каналов : Front: L RЧастота : 48,0 КГцЧастота кадров : 10,417 кадров/сек (4608 spf)Битовая глубина : 24 битРазмер потока : 461 Мбайт (13%)Библиотека кодирования : Lavf57.56.100Язык : JapaneseDefault : ДаForced : Нет
</div>
</div>
<div class="sp-wrap">
<div class="sp-head folded">Avdump</div>
<div class="sp-body">

File: E:\Раздачи\Аниме\[ReinForce] Hibike! Euphonium 2 (BDRip 1920x1080 x264 FLAC)\[ReinForce] Hibike! Euphonium 2 - 02 (BDRip 1920x1080 x264 FLAC).mkv Duration: 00:23:41 (1421.42) Track #1: video lang: und (1) codc: V_MPEG4/ISO/AVC -> H264/AVC (22) reso: 1920x1080 -> 16:9 fram: 23.976 fps rate: 9149 kbps (9149.21) dura: 00:23:41 (1421.38) size: 1.51 GB (1625561727) Track #2: audio lang: jpn -> Japanese (2) codc: A_FLAC -> Other (15) chan: 2 -> Stereo samp: 48000 Hz rate: 1375 kbps (1374.62) dura: 00:23:41 (1421.38) size: 232.92 MB (244230898) Sizes: (check sanity) disk: 1.74 GB (1870121152) trac: 1.74 GB (1869792625) [based on track size] bitr: 1.74 GB (1869792810) [based on bitrate] tdif: 320.83 KB (328527) 0.01% bdif: 320.65 KB (328341) 0.01%
Общее
Уникальный идентификатор                 : 77956930842431574456549931099811547196 (0x3AA5F570859490C6A3A2BBA0E315083C)
Полное имя                               : E:\Раздачи\Аниме\[ReinForce] Hibike! Euphonium 2 (BDRip 1920x1080 x264 FLAC)\[ReinForce] Hibike! Euphonium 2 - 02 (BDRip 1920x1080 x264 FLAC).mkv
Формат                                   : Matroska
Версия формата                           : Version 4 / Version 2
Размер файла                             : 1,74 Гбайт
Продолжительность                        : 23 м. 41 с.
Режим общего битрейта                    : Переменный
Общий поток                              : 10,5 Мбит/сек
Дата кодирования                         : UTC 2017-01-18 09:28:56
Программа кодирования                    : mkvmerge v9.7.1 ('Pandemonium') 64bit
Библиотека кодирования                   : libebml v1.3.4 + libmatroska v1.4.5

Видео
Идентификатор                            : 1
Формат                                   : AVC
Формат/Информация                        : Advanced Video Codec
Профиль формата                          : High@L4
Параметр CABAC формата                   : Да
Параметр ReFrames формата                : 4 кадра
Идентификатор кодека                     : V_MPEG4/ISO/AVC
Продолжительность                        : 23 м. 41 с.
Битрейт                                  : 9149 Кбит/сек
Ширина                                   : 1920 пикселей
Высота                                   : 1080 пикселей
Соотношение сторон                       : 16:9
Режим частоты кадров                     : Постоянный
Частота кадров                           : 23,976 (24000/1001) кадра/сек
Цветовое пространство                    : YUV
Субдискретизация насыщенности            : 4:2:0
Битовая глубина                          : 8 бит
Тип развёртки                            : Прогрессивная
Бит/(Пиксели*Кадры)                      : 0.184
Размер потока                            : 1,51 Гбайт (87%)
Библиотека кодирования                   : x264 core 148
Настройки программы                      : opencl=1 / cabac=1 / ref=4 / deblock=1:-2:-2 / analyse=0x3:0x113 / me=umh / subme=9 / psy=1 / psy_rd=0.70:0.00 / mixed_ref=0 / me_range=32 / chroma_me=1 / trellis=2 / 8x8dct=1 / cqm=0 / deadzone=21,11 / fast_pskip=1 / chroma_qp_offset=-2 / threads=8 / lookahead_threads=1 / sliced_threads=0 / nr=0 / decimate=1 / interlaced=0 / bluray_compat=0 / constrained_intra=0 / bframes=9 / b_pyramid=2 / b_adapt=2 / b_bias=0 / direct=3 / weightb=1 / open_gop=0 / weightp=2 / keyint=250 / keyint_min=23 / scenecut=40 / intra_refresh=0 / rc_lookahead=40 / rc=crf / mbtree=1 / crf=16.0 / qcomp=0.70 / qpmin=10 / qpmax=20 / qpstep=4 / ip_ratio=1.40 / aq=1:1.00
Default                                  : Да
Forced                                   : Нет

Аудио
Идентификатор                            : 2
Формат                                   : FLAC
Формат/Информация                        : Free Lossless Audio Codec
Идентификатор кодека                     : A_FLAC
Продолжительность                        : 23 м. 41 с.
Вид битрейта                             : Переменный
Битрейт                                  : 1374 Кбит/сек
Каналы                                   : 2 канала
Расположение каналов                     : Front: L R
Частота                                  : 48,0 КГц
Частота кадров                           : 10,417 кадров/сек (4608 spf)
Битовая глубина                          : 24 бит
Размер потока                            : 233 Мбайт (13%)
Библиотека кодирования                   : Lavf57.56.100
Язык                                     : Japanese
Default                                  : Да
Forced                                   : Нет
</div>
</div>
</div>
</div>
1. Фанфары середины лета / Mid-summer Fanfare
2. Нерешительная флейта / Hesitation Flute
3. Беспокойные ноктюрны / Troubled Nocturnes
4. Awakening Oboe / Пробудившийся гобой
5. Miraculous Harmony / Чудотворная гормония
6. Пасмурный дирижёр / Rainy Conductor
7. Станционный концерт / Station Concert
8. Простывшая рапсодия / Rhapsody in Flu
9. Играй, эуфониум! / Sound! Euphonium
10. Внеклассное облигато / After-school Obbligato
11. Первая любовь трубы / First Love Trumpet
12. Последний конкурс / The Last Competition
13. Эпилог начала весны / Early-Spring Epilogue
SP1. Добро пожаловать на салют поцелуев! / Welcome to the Fireworks Festival Kiss!
SP2. Добро пожаловать в бассейн! / Welcome to the Pool!
SP3. Добро пожаловать в форму горничной! / Welcome to Maid Outfit!
SP4. Добро пожаловать на соревновательный фестиваль! / Welcome to the Festival Battle!
SP5. Добро пожаловать на летающего Таки! / Welcome to the Flying Taki!
SP6. Добро пожаловать в высокое искусство! / Welcome to the Artist!
SP7. Добро пожаловать к Морфею! / Welcome to Morpheus!
Играй, Эуфониум! (ТВ-2) / Hibike! Euphonium 2 / Sound! Euphonium 2 (Izuu)
Играй, Эуфониум! (ТВ-2) / Hibike! Euphonium 2 (fire0shadow)
- BDRip


Трекер:  [ 24-Июн-2017 09:01 ]

  

Скачать .torrent

Размер .torrent файла 80 KB


Размер: 27.28 GB
Хэш (hash) релиза: c2760b61a345b5ef6e20257bfa215662e00c41e7
Подписка на обновления:

Еще никто не оставлял запись к записи скачать торрент Звучи! Эуфониум 2 Hibike! Euphonium 2 . Будь первым!

!Обратная связь