Скачать через торрент музыку Шоу. Американский Последний герой 16 Микронезия Survivor 16 Micronesia бесплатно без регистрации torrent

Если у вас наблюдаются проблемы со скриншотами, переходом по ссылками, скачиванием торрентов - проблемы в блокировщике рекламы AdBlock. #хорошегоДня!


Статистика раздачи
Размер:  297 MB   |    Зарегистрирован:  5 месяцев 20 дней   |    .torrent скачан:  8 раз   |   
Раздают:  1  
   
Загрузка...
 
Автор Сообщение

Galfimbul

avatar Galfimbul


Американский Последний герой 16 Микронезия / Survivor 16 Micronesia

Название альбома: Survivor Micronesia- Music from The TV Series
Жанр: Score
Композитор: Russ Landau
Год выпуска диска: 2008
Дата показа шоу: 7 февраля 2008 г. - 11 мая 2008 г.

Страна-производитель диска: США
Издатель (лейбл): Ancient Voices
Номер по каталогу: не нашел

Аудиокодек: FLAC (*.flac)
Тип рипа: tracks+.cue
Битрейт аудио: lossless

Продолжительность: 0:52:53

Источник: what.cd
Наличие сканов в содержимом раздачи: нет

Доп. информация: score из 16 сезона американского реалити-шоу Survivor Micronesia

Треклист:
01. Survivor 16 ColdOpen
02. Ancient Voices Surv 16 MT
03. Good News
04. Majestic Journey
05. MicroNista
06. Lo Tide
07. Micronesia Flag & Key Immunity
08. Chill Out
09. Exile Intense
10. Visions
11. Venture Out
12. Deep Enigma Yearning Medley
13. Joyful Fete
14. Sorcery
15. From Beyond
16. Band of Brothers
17. Dance of the Warriors
18. Black Water Pirates
19. Island Ritual
20. Honor the Fallen
21. AV Survivor 16 Promo Tease
Exact Audio Copy V1.1 from 23. June 2015

EAC extraction logfile from 28. May 2016, 16:51

Russ Landau / Survivor: Micronesia

Used drive : ASUS DRW-24B1ST c Adapter: 1 ID: 0

Read mode : SecureUtilize accurate stream : YesDefeat audio cache : YesMake use of C2 pointers : No

Read offset correction : 6Overread into Lead-In and Lead-Out : NoFill up missing offset samples with silence : YesDelete leading and trailing silent blocks : NoNull samples used in CRC calculations : YesUsed interface : Native Win32 interface for Win NT & 2000Gap handling : Appended to previous track

Used output format : User Defined EncoderSelected bitrate : 128 kBit/sQuality : HighAdd ID3 tag : NoCommand line compressor : D:\Dropbox\Applications\Exact Audio Copy\flac.exeAdditional command line options : -8 -e -V -T "ARTIST=%artist%" -T "TITLE=%title%" -T "ALBUM=%albumtitle%" -T "DATE=%year%" -T "TRACKNUMBER=%tracknr%" -T "GENRE=%genre%" -T "PERFORMER=%albuminterpret%" -T "COMPOSER=%composer%" %haslyrics%--tag-from-file=LYRICS="%lyricsfile%"%haslyrics% -T "ALBUMARTIST=%albumartist%" -T "DISCNUMBER=%cdnumber%" -T "TOTALDISCS=%totalcds%" -T "TOTALTRACKS=%numtracks%" -T "COMMENT=%comment%" %source% -o %dest%

TOC of the extracted CD

Track | Start | Length | Start sector | End sector --------------------------------------------------------- 1 | 0:00.00 | 2:06.65 | 0 | 9514 2 | 2:06.65 | 1:15.48 | 9515 | 15187 3 | 3:22.38 | 1:42.57 | 15188 | 22894 4 | 5:05.20 | 1:31.25 | 22895 | 29744 5 | 6:36.45 | 1:52.10 | 29745 | 38154 6 | 8:28.55 | 5:32.22 | 38155 | 63076 7 | 14:01.02 | 8:39.33 | 63077 | 102034 8 | 22:40.35 | 1:34.60 | 102035 | 109144 9 | 24:15.20 | 1:12.56 | 109145 | 114600 10 | 25:28.01 | 1:36.56 | 114601 | 121856 11 | 27:04.57 | 1:45.57 | 121857 | 129788 12 | 28:50.39 | 5:10.68 | 129789 | 153106 13 | 34:01.32 | 1:49.60 | 153107 | 161341 14 | 35:51.17 | 2:18.65 | 161342 | 171756 15 | 38:10.07 | 2:10.00 | 171757 | 181506 16 | 40:20.07 | 1:47.11 | 181507 | 189542 17 | 42:07.18 | 1:33.00 | 189543 | 196517 18 | 43:40.18 | 4:22.68 | 196518 | 216235 19 | 48:03.11 | 1:52.61 | 216236 | 224696 20 | 49:55.72 | 2:00.74 | 224697 | 233770 21 | 51:56.71 | 0:56.58 | 233771 | 238028

Track 1

Filename D:\Uploads\Russ Landau - 2008 - Survivor Micronesia [FLAC]\01 - Survivor 16 ColdOpen.wav

Pre-gap length 0:00:02.00

Peak level 100.0 % Extraction speed 1.8 X Track quality 100.0 % Test CRC 1A827DC7 Copy CRC 1A827DC7 Track not present in AccurateRip database Copy OK

Track 2

Filename D:\Uploads\Russ Landau - 2008 - Survivor Micronesia [FLAC]\02 - Ancient Voices Surv 16 MT.wav

Peak level 98.7 % Extraction speed 1.6 X Track quality 100.0 % Test CRC 337DDDBC Copy CRC 337DDDBC Track not present in AccurateRip database Copy OK

Track 3

Filename D:\Uploads\Russ Landau - 2008 - Survivor Micronesia [FLAC]\03 - Good News.wav

Peak level 100.0 % Extraction speed 1.8 X Track quality 100.0 % Test CRC 60FA7EC5 Copy CRC 60FA7EC5 Track not present in AccurateRip database Copy OK

Track 4

Filename D:\Uploads\Russ Landau - 2008 - Survivor Micronesia [FLAC]\04 - Majestic Journey.wav

Peak level 100.0 % Extraction speed 1.8 X Track quality 100.0 % Test CRC 3AC4E89B Copy CRC 3AC4E89B Track not present in AccurateRip database Copy OK

Track 5

Filename D:\Uploads\Russ Landau - 2008 - Survivor Micronesia [FLAC]\05 - MicroNista.wav

Peak level 100.0 % Extraction speed 2.0 X Track quality 100.0 % Test CRC DCFD4C29 Copy CRC DCFD4C29 Track not present in AccurateRip database Copy OK

Track 6

Filename D:\Uploads\Russ Landau - 2008 - Survivor Micronesia [FLAC]\06 - Lo Tide.wav

Peak level 98.6 % Extraction speed 2.6 X Track quality 100.0 % Test CRC 80F7F648 Copy CRC 80F7F648 Track not present in AccurateRip database Copy OK

Track 7

Filename D:\Uploads\Russ Landau - 2008 - Survivor Micronesia [FLAC]\07 - Micronesia Flag & Key Immunity.wav

Peak level 100.0 % Extraction speed 3.0 X Track quality 100.0 % Test CRC 7B4CFEA3 Copy CRC 7B4CFEA3 Track not present in AccurateRip database Copy OK

Track 8

Filename D:\Uploads\Russ Landau - 2008 - Survivor Micronesia [FLAC]\08 - Chill Out.wav

Peak level 100.0 % Extraction speed 2.4 X Track quality 100.0 % Test CRC 37C2BC56 Copy CRC 37C2BC56 Track not present in AccurateRip database Copy OK

Track 9

Filename D:\Uploads\Russ Landau - 2008 - Survivor Micronesia [FLAC]\09 - Exile Intense.wav

Peak level 70.9 % Extraction speed 2.2 X Track quality 100.0 % Test CRC 7786CEBE Copy CRC 7786CEBE Track not present in AccurateRip database Copy OK

Track 10

Filename D:\Uploads\Russ Landau - 2008 - Survivor Micronesia [FLAC]\10 - Visions.wav

Peak level 99.1 % Extraction speed 2.5 X Track quality 100.0 % Test CRC 97C051F6 Copy CRC 97C051F6 Track not present in AccurateRip database Copy OK

Track 11

Filename D:\Uploads\Russ Landau - 2008 - Survivor Micronesia [FLAC]\11 - Venture Out.wav

Peak level 100.0 % Extraction speed 2.6 X Track quality 100.0 % Test CRC EAAF3FB5 Copy CRC EAAF3FB5 Track not present in AccurateRip database Copy OK

Track 12

Filename D:\Uploads\Russ Landau - 2008 - Survivor Micronesia [FLAC]\12 - Deep Enigma Yearning Medley.wav

Peak level 100.0 % Extraction speed 3.2 X Track quality 100.0 % Test CRC 6A62307D Copy CRC 6A62307D Track not present in AccurateRip database Copy OK

Track 13

Filename D:\Uploads\Russ Landau - 2008 - Survivor Micronesia [FLAC]\13 - Joyful Fete.wav

Peak level 100.0 % Extraction speed 2.8 X Track quality 100.0 % Test CRC 162C7262 Copy CRC 162C7262 Track not present in AccurateRip database Copy OK

Track 14

Filename D:\Uploads\Russ Landau - 2008 - Survivor Micronesia [FLAC]\14 - Sorcery.wav

Peak level 100.0 % Extraction speed 3.0 X Track quality 100.0 % Test CRC 0484E9E9 Copy CRC 0484E9E9 Track not present in AccurateRip database Copy OK

Track 15

Filename D:\Uploads\Russ Landau - 2008 - Survivor Micronesia [FLAC]\15 - From Beyond.wav

Peak level 100.0 % Extraction speed 3.0 X Track quality 100.0 % Test CRC AB28040D Copy CRC AB28040D Track not present in AccurateRip database Copy OK

Track 16

Filename D:\Uploads\Russ Landau - 2008 - Survivor Micronesia [FLAC]\16 - Band of Brothers.wav

Peak level 100.0 % Extraction speed 2.8 X Track quality 100.0 % Test CRC 766FA66D Copy CRC 766FA66D Track not present in AccurateRip database Copy OK

Track 17

Filename D:\Uploads\Russ Landau - 2008 - Survivor Micronesia [FLAC]\17 - Dance of the Warriors.wav

Peak level 100.0 % Extraction speed 2.9 X Track quality 100.0 % Test CRC 7469B5E8 Copy CRC 7469B5E8 Track not present in AccurateRip database Copy OK

Track 18

Filename D:\Uploads\Russ Landau - 2008 - Survivor Micronesia [FLAC]\18 - Black Water Pirates.wav

Peak level 100.0 % Extraction speed 2.7 X Track quality 99.9 % Test CRC 5D286FFE Copy CRC 5D286FFE Track not present in AccurateRip database Copy OK

Track 19

Filename D:\Uploads\Russ Landau - 2008 - Survivor Micronesia [FLAC]\19 - Island Ritual.wav

Peak level 98.1 % Extraction speed 3.1 X Track quality 100.0 % Test CRC 2E446152 Copy CRC 2E446152 Track not present in AccurateRip database Copy OK

Track 20

Filename D:\Uploads\Russ Landau - 2008 - Survivor Micronesia [FLAC]\20 - Honor the Fallen.wav

Peak level 100.0 % Extraction speed 3.2 X Track quality 100.0 % Test CRC 43B58214 Copy CRC 43B58214 Track not present in AccurateRip database Copy OK

Track 21

Filename D:\Uploads\Russ Landau - 2008 - Survivor Micronesia [FLAC]\21 - AV Survivor 16 Promo Tease.wav

Peak level 61.5 % Extraction speed 1.2 X Track quality 99.8 % Test CRC E560522A Copy CRC E560522A Track not present in AccurateRip database Copy OK

None of the tracks are present in the AccurateRip database

No errors occurred

End of status report

---- CUETools DB Plugin V2.1.6

[CTDB TOCID: kk14nDyW4jdNqp83Wtm_ZWPdREY-] disk not present in databaseSubmit result: kk14nDyW4jdNqp83Wtm_ZWPdREY- has been uploaded

==== Log checksum 9116496BA49C64D3E8230476E0B80B087189D724CD54044EBCDB54A4A0011AB4 ====
REM DATE 2008REM DISCID 130C6515REM COMMENT "ExactAudioCopy v1.1"PERFORMER "Russ Landau"TITLE "Survivor: Micronesia"FILE "01 - Survivor 16 ColdOpen.wav" WAVE TRACK 01 AUDIO TITLE "Survivor 16 ColdOpen" PERFORMER "Russ Landau" INDEX 01 00:00:00FILE "02 - Ancient Voices Surv 16 MT.wav" WAVE TRACK 02 AUDIO TITLE "Ancient Voices Surv 16 MT" PERFORMER "Russ Landau" INDEX 01 00:00:00FILE "03 - Good News.wav" WAVE TRACK 03 AUDIO TITLE "Good News" PERFORMER "Russ Landau" INDEX 01 00:00:00FILE "04 - Majestic Journey.wav" WAVE TRACK 04 AUDIO TITLE "Majestic Journey" PERFORMER "Russ Landau" INDEX 01 00:00:00FILE "05 - MicroNista.wav" WAVE TRACK 05 AUDIO TITLE "MicroNista" PERFORMER "Russ Landau" INDEX 01 00:00:00FILE "06 - Lo Tide.wav" WAVE TRACK 06 AUDIO TITLE "Lo Tide" PERFORMER "Russ Landau" INDEX 01 00:00:00FILE "07 - Micronesia Flag & Key Immunity.wav" WAVE TRACK 07 AUDIO TITLE "Micronesia Flag & Key Immunity" PERFORMER "Russ Landau" INDEX 01 00:00:00FILE "08 - Chill Out.wav" WAVE TRACK 08 AUDIO TITLE "Chill Out" PERFORMER "Russ Landau" INDEX 01 00:00:00FILE "09 - Exile Intense.wav" WAVE TRACK 09 AUDIO TITLE "Exile Intense" PERFORMER "Russ Landau" INDEX 01 00:00:00FILE "10 - Visions.wav" WAVE TRACK 10 AUDIO TITLE "Visions" PERFORMER "Russ Landau" INDEX 01 00:00:00FILE "11 - Venture Out.wav" WAVE TRACK 11 AUDIO TITLE "Venture Out" PERFORMER "Russ Landau" INDEX 01 00:00:00FILE "12 - Deep Enigma Yearning Medley.wav" WAVE TRACK 12 AUDIO TITLE "Deep Enigma Yearning Medley" PERFORMER "Russ Landau" INDEX 01 00:00:00FILE "13 - Joyful Fete.wav" WAVE TRACK 13 AUDIO TITLE "Joyful Fete" PERFORMER "Russ Landau" INDEX 01 00:00:00FILE "14 - Sorcery.wav" WAVE TRACK 14 AUDIO TITLE "Sorcery" PERFORMER "Russ Landau" INDEX 01 00:00:00FILE "15 - From Beyond.wav" WAVE TRACK 15 AUDIO TITLE "From Beyond" PERFORMER "Russ Landau" INDEX 01 00:00:00FILE "16 - Band of Brothers.wav" WAVE TRACK 16 AUDIO TITLE "Band of Brothers" PERFORMER "Russ Landau" INDEX 01 00:00:00FILE "17 - Dance of the Warriors.wav" WAVE TRACK 17 AUDIO TITLE "Dance of the Warriors" PERFORMER "Russ Landau" INDEX 01 00:00:00FILE "18 - Black Water Pirates.wav" WAVE TRACK 18 AUDIO TITLE "Black Water Pirates" PERFORMER "Russ Landau" INDEX 01 00:00:00FILE "19 - Island Ritual.wav" WAVE TRACK 19 AUDIO TITLE "Island Ritual" PERFORMER "Russ Landau" INDEX 01 00:00:00FILE "20 - Honor the Fallen.wav" WAVE TRACK 20 AUDIO TITLE "Honor the Fallen" PERFORMER "Russ Landau" INDEX 01 00:00:00FILE "21 - AV Survivor 16 Promo Tease.wav" WAVE TRACK 21 AUDIO TITLE "AV Survivor 16 Promo Tease" PERFORMER "Russ Landau" INDEX 01 00:00:00


Трекер:  [ 25-Июн-2017 18:06 ]

  

Скачать .torrent

Размер .torrent файла 13 KB


Размер: 297 MB
Хэш (hash) релиза: 41a0fa1b4b1a39dc786669f257127c2d5dc03308

Еще никто не оставлял запись к записи скачать торрент Шоу. Американский Последний герой 16 Микронезия Survivor 16 Micronesia . Будь первым!

!Обратная связь