Скачать через торрент [VIDEO] Миямото Мусаси Miyamoto Musashi бесплатно русская версия torrent активатор

Если у вас наблюдаются проблемы со скриншотами, переходом по ссылками, скачиванием торрентов - проблемы в блокировщике рекламы AdBlock. #хорошегоДня!


Статистика раздачи
Размер:  680 MB   |    Зарегистрирован:  5 месяцев 15 дней   |    .torrent скачан:  29 раз   |   
Раздают:  1  
   
Загрузка...
 
Автор Сообщение

Galfimbul

avatar Galfimbul


Миямото Мусаси / Miyamoto Musashi / Sword of Fury
Год выпуска: 1973
Страна: Япония / Shochiku Eiga
Жанр: драма
Продолжительность: 02:28:20
Перевод: Одноголосый (закадровый) Алексей Яковлев
Субтитры: нетРежиссер: Тай Като / Tai KatoВ ролях: Дзиро Тамия, Дзиро Тамия, Кэйко Мацудзака, Мицуко Байсё, Хидэки Такахаси, Фуранки Сакаи, Тисю Рю, Тосиюки Хосокава, Ёси Като, Усио Акаси, Итиро Арисима, Сэидзи Эндо, Таканобу Ходзуми, Кэнтаро Имаи, Томико Исии, Кэндзиро Исияма, Такэси Като, Кэндзи Кимура и другие .Описание: Состоящий из двух частей фильм «Мусаси Миямото» был выпущен в 1973 году японским режиссером Тай Като (1916-1985), получившим широкую известность в начале 60-х годов прошлого столетия после выхода таких фильмов, как «Самурай Перекати-Поле» и «Суровые истории времен падения Сегуната». Пол Шредер, проводивший ретроспективу фильмов Като в Америке, говорил, что это один из самых одаренных режиссеров своего поколения и его работы можно сравнивать только с лучшими картинами Серджио Леоне. Этот фильм представляет собой одну из экранизаций повествований о Миямото Мусаси – японском ронине, считающимся одним из самых известных фехтовальщиков в истории Японии. Мусаси стал знаменит благодаря выдающейся технике владения мечом, которую он с раннего детства оттачивал во многих поединках, используя деревянный меч, а также технику боя двумя мечами: длинным — катаной и коротким — вакидзаси.Кинопоиск (нет еще рейтинга) Качество: HDRip / рип с BDRip 720p
Формат: MP4
Видео кодек: XviD
Аудио кодек: AAC
Видео: 480x200 AR:2.40 509 kbps 23.976 fps
Аудио: [Russian] 2ch 48 kHz 128 kbps - [VO] Одноголосый (закадровый) Алексей Яковлев
GeneralComplete name : D:\Torrents\Miyamoto Musashi.1973.HDRip.XviD.480x.rip by Frost O.S.mp4Format : MPEG-4Format profile : Base MediaCodec ID : isom (isom)File size : 680 MiBDuration : 2 h 28 minOverall bit rate mode : VariableOverall bit rate : 641 kb/sEncoded date : UTC 2017-06-28 17:42:10Tagged date : UTC 2017-06-28 17:42:10Writing application : My MP4Box GUI 0.6.0.6

VideoID : 1Format : MPEG-4 VisualFormat profile : Advanced Simple@L5Format settings, BVOP : YesFormat settings, QPel : YesFormat settings, GMC : No warppointsFormat settings, Matrix : CustomCodec ID : 20Duration : 2 h 28 minBit rate mode : VariableBit rate : 509 kb/sMaximum bit rate : 3 554 kb/sWidth : 480 pixelsHeight : 200 pixelsDisplay aspect ratio : 2.40:1Frame rate mode : ConstantFrame rate : 23.976 (24000/1001) FPSOriginal frame rate : 23.976 (23976/1000) FPSColor space : YUVChroma subsampling : 4:2:0Bit depth : 8 bitsScan type : ProgressiveCompression mode : LossyBits/(Pixel*Frame) : 0.221Stream size : 540 MiB (79%)Title : Miyamoto Musashi.1973.HDRip.XviD.480x.rip by Frost O.S.mp4Writing library : XviD 1.2.1 (UTC 2008-12-04)Encoded date : UTC 2017-06-28 17:42:10Tagged date : UTC 2017-06-28 17:42:21

AudioID : 2Format : AACFormat/Info : Advanced Audio CodecFormat profile : LCCodec ID : 40Duration : 2 h 28 minBit rate mode : VariableBit rate : 128 kb/sMaximum bit rate : 139 kb/sChannel(s) : 2 channelsChannel positions : Front: L RSampling rate : 48.0 kHzFrame rate : 46.875 FPS (1024 spf)Compression mode : LossyStream size : 136 MiB (20%)Title : Russian / [VO] Alexey_YakovlevEncoded date : UTC 2017-06-28 17:42:17Tagged date : UTC 2017-06-28 17:42:21


Трекер:  [ 28-Июн-2017 21:12 ]

  

Скачать .torrent

Размер .torrent файла 13 KB


Размер: 680 MB
Хэш (hash) релиза: 0fbb77d68c83935533a515400b441eaad800a3b3

Торренты, похожие на [VIDEO] Миямото Мусаси Miyamoto Musashi скачать торрент

Форум Название Автор Размер S L Добавлен
Видео (Фильмы/Клипы) ·· [VIDEO] Миямото Мусаси / Miyamoto Musashi / Sword of Fury (Тай Като / Tai Kato) [1973, драма, HDRip] [MP4, 960x] VO Алексей Яковлев Galfimbul 20826200771.94 GB 0 0 1498673598

21:13

28-Июн-17

Еще никто не оставлял запись к записи скачать торрент [VIDEO] Миямото Мусаси Miyamoto Musashi . Будь первым!

!Обратная связь