Скачать через торрент [VIDEO] Миямото Мусаси Miyamoto Musashi бесплатно русская версия torrent активатор

Если у вас наблюдаются проблемы со скриншотами, переходом по ссылками, скачиванием торрентов - проблемы в блокировщике рекламы AdBlock. #хорошегоДня!


Статистика раздачи
Размер:  1.94 GB   |    Зарегистрирован:  5 месяцев 19 дней   |    .torrent скачан:  30 раз   |   
Раздают:  1  
   
Загрузка...
 
Автор Сообщение

Galfimbul

avatar Galfimbul


Миямото Мусаси / Miyamoto Musashi / Sword of Fury
Год выпуска: 1973
Страна: Япония / Shochiku Eiga
Жанр: драма
Продолжительность: 02:28:20
Перевод: Одноголосый (закадровый) Алексей Яковлев
Субтитры: нетРежиссер: Тай Като / Tai KatoВ ролях: Дзиро Тамия, Дзиро Тамия, Кэйко Мацудзака, Мицуко Байсё, Хидэки Такахаси, Фуранки Сакаи, Тисю Рю, Тосиюки Хосокава, Ёси Като, Усио Акаси, Итиро Арисима, Сэидзи Эндо, Таканобу Ходзуми, Кэнтаро Имаи, Томико Исии, Кэндзиро Исияма, Такэси Като, Кэндзи Кимура и другие .Описание: Состоящий из двух частей фильм «Мусаси Миямото» был выпущен в 1973 году японским режиссером Тай Като (1916-1985), получившим широкую известность в начале 60-х годов прошлого столетия после выхода таких фильмов, как «Самурай Перекати-Поле» и «Суровые истории времен падения Сегуната». Пол Шредер, проводивший ретроспективу фильмов Като в Америке, говорил, что это один из самых одаренных режиссеров своего поколения и его работы можно сравнивать только с лучшими картинами Серджио Леоне. Этот фильм представляет собой одну из экранизаций повествований о Миямото Мусаси – японском ронине, считающимся одним из самых известных фехтовальщиков в истории Японии. Мусаси стал знаменит благодаря выдающейся технике владения мечом, которую он с раннего детства оттачивал во многих поединках, используя деревянный меч, а также технику боя двумя мечами: длинным — катаной и коротким — вакидзаси.Кинопоиск (нет еще рейтинга) Качество: HDRip / рип с BDRip 720p
Формат: MP4
Видео кодек: H.264
Аудио кодек: AAC
Видео: 960x400 AR:2.40 1740 kbps 23.976 fps
Аудио: [Russian] 2ch 48 kHz 128 kbps - [VO] Одноголосый (закадровый) Алексей Яковлев
avs [info]: 960x400p 1:1 @ 2997/125 fps (cfr)
x264 [info]: using SAR=1/1
x264 [info]: using cpu capabilities: MMX2 SSE2Fast SSSE3 SSE4.2 AVX FMA3 AVX2 LZCNT BMI2
x264 [info]: profile High, level 4.1

x264 [info]: frame I:1118 Avg QP:16.21 size: 59328
x264 [info]: frame P:41184 Avg QP:19.37 size: 19001
x264 [info]: frame B:171105 Avg QP:21.50 size: 6354
x264 [info]: consecutive B-frames: 1.1% 1.1% 4.3% 9.7% 14.3% 63.2% 5.2% 1.1%
x264 [info]: mb I I16..4: 3.2% 81.9% 14.9%
x264 [info]: mb P I16..4: 0.2% 10.1% 0.7% P16..4: 33.1% 39.3% 14.2% 0.0% 0.0% skip: 2.4%
x264 [info]: mb B I16..4: 0.0% 1.1% 0.1% B16..8: 36.6% 17.3% 3.1% direct: 5.2% skip:36.6% L0:46.0% L1:45.2% BI: 8.8%
x264 [info]: 8x8 transform intra:90.5% inter:55.5%
x264 [info]: direct mvs spatial:98.9% temporal:1.1%
x264 [info]: coded y,uvDC,uvAC intra: 97.7% 70.5% 30.1% inter: 24.2% 11.6% 1.2%
x264 [info]: i16 v,h,dc,p: 18% 15% 10% 56%
x264 [info]: i8 v,h,dc,ddl,ddr,vr,hd,vl,hu: 7% 7% 10% 10% 15% 13% 14% 11% 13%
x264 [info]: i4 v,h,dc,ddl,ddr,vr,hd,vl,hu: 7% 6% 4% 10% 17% 16% 15% 12% 14%
x264 [info]: i8c dc,h,v,p: 32% 33% 19% 16%
x264 [info]: Weighted P-Frames: Y:8.2% UV:3.2%
x264 [info]: ref P L0: 36.5% 7.8% 18.4% 7.5% 7.4% 5.4% 5.6% 2.8% 3.0% 2.5% 2.8% 0.2% 0.0%
x264 [info]: ref B L0: 68.1% 11.1% 6.5% 3.6% 2.8% 2.7% 2.2% 1.4% 0.9% 0.6%
x264 [info]: ref B L1: 94.5% 5.5%
x264 [info]: kb/s:1740.12

encoded 213407 frames, 13.78 fps, 1740.12 kb/s
GeneralComplete name : D:\Torrents\Miyamoto Musashi.1973.HDRip.x264.960x.rip by Frost O.S.mp4Format : MPEG-4Format profile : Base MediaCodec ID : isom (isom)File size : 1.94 GiBDuration : 2 h 28 minOverall bit rate mode : VariableOverall bit rate : 1 872 kb/sEncoded date : UTC 2017-06-28 17:30:15Tagged date : UTC 2017-06-28 17:30:15Writing application : My MP4Box GUI 0.6.0.6

VideoID : 1Format : AVCFormat/Info : Advanced Video CodecFormat profile : High@L4.1Format settings, CABAC : YesFormat settings, ReFrames : 11 framesCodec ID : avc1Codec ID/Info : Advanced Video CodingDuration : 2 h 28 minBit rate : 1 740 kb/sMaximum bit rate : 7 043 kb/sWidth : 960 pixelsHeight : 400 pixelsDisplay aspect ratio : 2.40:1Frame rate mode : ConstantFrame rate : 23.976 (23976/1000) FPSColor space : YUVChroma subsampling : 4:2:0Bit depth : 8 bitsScan type : ProgressiveBits/(Pixel*Frame) : 0.189Stream size : 1.80 GiB (93%)Title : Miyamoto Musashi.1973.HDRip.x264.960x.rip by Frost O.S.mp4Writing library : x264 core 148 r2744 b97ae06Encoding settings : cabac=1 / ref=11 / deblock=1:-1:-1 / analyse=0x3:0x113 / me=umh / subme=11 / psy=1 / psy_rd=0.90:0.00 / mixed_ref=1 / me_range=32 / chroma_me=1 / trellis=2 / 8x8dct=1 / cqm=0 / deadzone=21,11 / fast_pskip=0 / chroma_qp_offset=-2 / threads=6 / lookahead_threads=1 / sliced_threads=0 / nr=0 / decimate=0 / interlaced=0 / bluray_compat=0 / constrained_intra=0 / bframes=7 / b_pyramid=2 / b_adapt=2 / b_bias=0 / direct=3 / weightb=1 / open_gop=0 / weightp=2 / keyint=250 / keyint_min=23 / scenecut=40 / intra_refresh=0 / rc=2pass / mbtree=0 / bitrate=1740 / ratetol=1.0 / qcomp=0.75 / qpmin=0 / qpmax=69 / qpstep=4 / cplxblur=20.0 / qblur=0.5 / ip_ratio=1.40 / pb_ratio=1.30 / aq=3:0.70Encoded date : UTC 2017-06-28 14:01:11Tagged date : UTC 2017-06-28 17:30:51Color range : LimitedColor primaries : BT.709Transfer characteristics : BT.709Matrix coefficients : BT.709

AudioID : 2Format : AACFormat/Info : Advanced Audio CodecFormat profile : LCCodec ID : 40Duration : 2 h 28 minBit rate mode : VariableBit rate : 128 kb/sMaximum bit rate : 139 kb/sChannel(s) : 2 channelsChannel positions : Front: L RSampling rate : 48.0 kHzFrame rate : 46.875 FPS (1024 spf)Compression mode : LossyStream size : 136 MiB (7%)Title : Russian / [VO] Alexey_YakovlevEncoded date : UTC 2017-06-28 17:30:40Tagged date : UTC 2017-06-28 17:30:51


Трекер:  [ 28-Июн-2017 21:12 ]

  

Скачать .torrent

Размер .torrent файла 20 KB


Размер: 1.94 GB
Хэш (hash) релиза: 4add67c95609acf891f321c43dad9bf504a2a98b

Торренты, похожие на [VIDEO] Миямото Мусаси Miyamoto Musashi скачать торрент

Форум Название Автор Размер S L Добавлен
Видео (Фильмы/Клипы) ·· [VIDEO] Миямото Мусаси / Miyamoto Musashi / Sword of Fury (Тай Като / Tai Kato) [1973, драма, HDRip] [MP4, 480x] VO Алексей Яковлев Galfimbul 712778522680 MB 0 0 1498673587

21:13

28-Июн-17

Еще никто не оставлял запись к записи скачать торрент [VIDEO] Миямото Мусаси Miyamoto Musashi . Будь первым!

!Обратная связь