Скачать через торрент В случае с братом медицина бессильна! Ani ni Tsukeru Kusuri wa Nai! бесплатно Аниме Все серии на русском torrent

Если у вас наблюдаются проблемы со скриншотами, переходом по ссылками, скачиванием торрентов - проблемы в блокировщике рекламы AdBlock. #хорошегоДня!


Статистика раздачи
Размер:  651 MB   |    Зарегистрирован:  5 месяцев 13 дней   |    .torrent скачан:  19 раз   |   
Раздают:  1  
   
Загрузка...
 
Автор Сообщение

Galfimbul

avatar Galfimbul


В случае с братом медицина бессильна! / Ani ni Tsukeru Kusuri wa Nai! / Please Take My Brother Away

Страна:
Год выпуска: 2017
Жанр: комедия, повседневность
Тип: TV
Продолжительность: 12 эп. по 3 мин.
Режиссер: Рарэко
Студия: Fanworks, Imagineer

Описание: What's your brother like? To Miao, her brother Fen is someone who would tease her and make her explode 100 times a day; not a peaceful day as the two are fighting every single minute. However, when troubles come, Fen will become a caring, loving brother who protects his little sister at all cost.Доп. информация: Оф. сайт || AniDB || World Art || MALКачество: WEBRip
Тип релиза: Без хардсаба
Формат видео: MP4
Наличие линковки: Нет
Релиз/Автор рипа: [Leopard-Raws]
Видео: AVC, 1280x720, 1 933 kb/s, 23.976 FPS, 8 bits
Аудио: AAC, 192 kb/s, 48.0 kHz, 2 channelsСубтитры: ASS, внешние
Переводчик: Наталия Ишова
General
Complete name                  : G:\L\[Leopard-Raws] Ani ni Tsukeru Kusuri wa Nai! (MX 1280x720 x264 AAC)\[Leopard-Raws] Ani ni Tsukeru Kusuri wa Nai! - 04 RAW (MX 1280x720 x264 AAC).mp4
Format                         : MPEG-4
Format profile                 : Base Media
Codec ID                       : isom (isom/avc1/iso6)
File size                      : 53.2 MiB
Duration                       : 3 min 29 s
Overall bit rate mode          : Variable
Overall bit rate               : 2 124 kb/s
Encoded date                   : UTC 2017-04-28 20:08:05
Tagged date                    : UTC 2017-04-28 20:08:05

Video
ID                             : 1
Format                         : AVC
Format/Info                    : Advanced Video Codec
Format profile                 : High@L4.1
Format settings, CABAC         : Yes
Format settings, ReFrames      : 4 frames
Codec ID                       : avc1
Codec ID/Info                  : Advanced Video Coding
Duration                       : 3 min 29 s
Bit rate                       : 1 933 kb/s
Maximum bit rate               : 11.3 Mb/s
Width                          : 1 280 pixels
Height                         : 720 pixels
Display aspect ratio           : 16:9
Frame rate mode                : Constant
Frame rate                     : 23.976 (24000/1001) FPS
Color space                    : YUV
Chroma subsampling             : 4:2:0
Bit depth                      : 8 bits
Scan type                      : Progressive
Bits/(Pixel*Frame)             : 0.087
Stream size                    : 48.4 MiB (91%)
Title                          : 264:fps=23.976@GPAC0.5.2-DEV-rev376-g5eeb74d-master
Writing library                : x264 core 129 r2245+729M 1a52e03
Encoding settings              : cabac=1 / ref=4 / deblock=1:1:-1 / analyse=0x3:0x113 / me=umh / subme=9 / psy=1 / fade_compensate=0.00 / psy_rd=1.00:0.00 / mixed_ref=1 / me_range=24 / chroma_me=1 / trellis=2 / 8x8dct=1 / cqm=0 / deadzone=21,11 / fast_pskip=1 / chroma_qp_offset=-2 / threads=8 / lookahead_threads=1 / sliced_threads=0 / nr=0 / decimate=1 / interlaced=0 / bluray_compat=0 / constrained_intra=0 / fgo=0 / bframes=9 / b_pyramid=2 / b_adapt=2 / b_bias=0 / direct=1 / weightb=1 / open_gop=0 / weightp=2 / keyint=240 / keyint_min=24 / scenecut=40 / intra_refresh=0 / rc=crf / mbtree=0 / crf=18.5 / qcomp=0.72 / qpmin=0 / qpmax=69 / qpstep=4 / ip_ratio=1.40 / pb_ratio=1.30 / aq=1:0.85
Encoded date                   : UTC 2017-04-28 20:08:05
Tagged date                    : UTC 2017-04-28 20:08:06
Color range                    : Limited
Color primaries                : BT.709
Transfer characteristics       : BT.709
Matrix coefficients            : BT.709

Audio
ID                             : 2
Format                         : AAC
Format/Info                    : Advanced Audio Codec
Format profile                 : LC
Codec ID                       : 40
Duration                       : 3 min 29 s
Bit rate mode                  : Variable
Bit rate                       : 192 kb/s
Maximum bit rate               : 221 kb/s
Channel(s)                     : 2 channels
Channel positions              : Front: L R
Sampling rate                  : 48.0 kHz
Frame rate                     : 46.875 FPS (1024 spf)
Compression mode               : Lossy
Stream size                    : 4.73 MiB (9%)
Language                       : Japanese
Encoded date                   : UTC 2017-04-28 13:51:57
Tagged date                    : UTC 2017-04-28 20:08:06
12


Трекер:  [ 29-Июн-2017 16:30 ]

  

Скачать .torrent

Размер .torrent файла 16 KB


Размер: 651 MB
Хэш (hash) релиза: 7fcc9bff2be294280ea9d91fa872c18b1bb221c0
Подписка на обновления:

Еще никто не оставлял запись к записи скачать торрент В случае с братом медицина бессильна! Ani ni Tsukeru Kusuri wa Nai! . Будь первым!

!Обратная связь