Скачать через торрент [VIDEO] Конг: Остров черепа Kong: Skull Island бесплатно русская версия torrent активатор

Если у вас наблюдаются проблемы со скриншотами, переходом по ссылками, скачиванием торрентов - проблемы в блокировщике рекламы AdBlock. #хорошегоДня!


Статистика раздачи
Размер:  540 MB   |    Зарегистрирован:  5 месяцев 14 дней   |    .torrent скачан:  21 раз   |   
Раздают:  1  
   
Загрузка...
 
Автор Сообщение

Galfimbul

avatar Galfimbul


Конг: Остров черепа / Kong: Skull Island«Пробуждение Кинг-Конга»
Год выпуска: 2017
Страна: США / 20th Century Fox Film Corporation
Жанр: фантастика, фэнтези, боевик, приключения
Продолжительность: 01:58:23
Перевод: Русский Профессиональный (полное дублирование) BD EUR |Лицензия
Оригинальная дорожка: Есть
Субтитры: нетРежиссер: Джордан Вот-Робертс / Jordan Vogt-RobertsВ ролях: Том Хиддлстон, Сэмюэл Л. Джексон, Джон Гудмен, Бри Ларсон, Тянь Цзин, Тоби Кеббелл, Джон Ортис, Кори Хоукинс, Джейсон Митчелл, Ши Уигхэм и другие .Описание: На неизвестный остров в Тихом океане попадает команда ученых, военных и искателей приключений. Они вторгаются во владения могучего Конга и тем самым развязывают сражение между человеком и природой. Очень скоро исследовательская миссия превращается в игру на выживание, ее участники вынуждены буквально прорубать себе путь к спасению. Релиз группы Качество: HDRip / рип с BDRip 720p
Формат: MP4
Видео кодек: XviD
Аудио кодек: AAC
Видео: 480х200 AR:2.40 505 kbps 23.976 fps
Аудио: [Russian] 2ch 48 kHz 128 kbps - Профессиональный (полное дублирование) BD EUR |Лицензия
GeneralComplete name : D:\Torrents\Kong Skull Island.2017.HDRip.XviD.480x.rip by Frost O.S.mp4Format : MPEG-4Format profile : Base MediaCodec ID : isom (isom)File size : 540 MiBDuration : 1 h 58 minOverall bit rate mode : VariableOverall bit rate : 637 kb/sEncoded date : UTC 2017-06-29 16:48:13Tagged date : UTC 2017-06-29 16:48:13Writing application : My MP4Box GUI 0.6.0.6

VideoID : 1Format : MPEG-4 VisualFormat profile : Advanced Simple@L5Format settings, BVOP : YesFormat settings, QPel : NoFormat settings, GMC : No warppointsFormat settings, Matrix : CustomCodec ID : 20Duration : 1 h 58 minBit rate mode : VariableBit rate : 505 kb/sMaximum bit rate : 3 260 kb/sWidth : 480 pixelsHeight : 200 pixelsDisplay aspect ratio : 2.40:1Frame rate mode : VariableFrame rate : 23.976 (23976/1000) FPSMinimum frame rate : 11.988 FPSMaximum frame rate : 23.976 FPSColor space : YUVChroma subsampling : 4:2:0Bit depth : 8 bitsScan type : ProgressiveCompression mode : LossyBits/(Pixel*Frame) : 0.220Stream size : 428 MiB (79%)Title : Kong Skull Island.2017.HDRip.XviD.480x.rip by Frost O.S.mp4Writing library : XviD 1.2.1 (UTC 2008-12-04)Encoded date : UTC 2017-06-29 16:48:13Tagged date : UTC 2017-06-29 16:48:25

AudioID : 2Format : AACFormat/Info : Advanced Audio CodecFormat profile : LCCodec ID : 40Duration : 1 h 58 minBit rate mode : VariableBit rate : 128 kb/sMaximum bit rate : 138 kb/sChannel(s) : 2 channelsChannel positions : Front: L RSampling rate : 48.0 kHzFrame rate : 46.875 FPS (1024 spf)Compression mode : LossyStream size : 108 MiB (20%)Title : Russian / Dub, BD EUREncoded date : UTC 2017-06-29 16:48:19Tagged date : UTC 2017-06-29 16:48:25


Трекер:  [ 29-Июн-2017 20:12 ]

  

Скачать .torrent

Размер .torrent файла 11 KB


Размер: 540 MB
Хэш (hash) релиза: 870e8ac743e43052cf451df518a73fa2d3b8b862

Еще никто не оставлял запись к записи скачать торрент [VIDEO] Конг: Остров черепа Kong: Skull Island . Будь первым!

!Обратная связь