Скачать через торрент музыку Шоу. Американский Последний герой 27 Survivor 27 Blood vs Water бесплатно без регистрации torrent

Если у вас наблюдаются проблемы со скриншотами, переходом по ссылками, скачиванием торрентов - проблемы в блокировщике рекламы AdBlock. #хорошегоДня!


Статистика раздачи
Размер:  286 MB   |    Зарегистрирован:  5 месяцев 15 дней   |    .torrent скачан:  26 раз   |   
Раздают:  1  
   
Загрузка...
 
Автор Сообщение

Galfimbul

avatar Galfimbul


Шоу. Американский Последний герой 27 / Survivor 27 Blood vs Water

Название альбома: Survivor Season 27 Blood vs Water - The Album
Жанр: Score
Композитор: Russ Landau
Год выпуска диска: 2013
Дата показа шоу: 18 сентября 2013 г. - 15 декабря 2013 г.

Страна-производитель диска: США
Издатель (лейбл): Ancient Voices
Номер по каталогу: не нашел

Аудиокодек: FLAC (*.flac)
Тип рипа: tracks+.cue
Битрейт аудио: lossless

Продолжительность: 0:51:20

Источник: what.cd
Наличие сканов в содержимом раздачи: нет

Доп. информация: score из 27 сезона американского реалити-шоу Survivor Blood vs Water

Треклист:
01. AV Rites Soldiers
02. Awesome Arrival
03. Blood in the Water
04. Te Lucis Redemption
05. Heroes Forever
06. Jungle Cathedral
07. Unrelenting Cold Open
08. AV27 MT
09. Atonement
10. Dawning Into Glory
11. Dramatic Challenge
12. Lamentation
13. Gods & Monsters
14. Rise To It
15. In the Balance
16. Atoning
17. Benedecite
18. Corruption
19. Vivace Challenge
20. Fu Man Chu
21. Rites in Spirit
22. Testament
23. March to Tribal
24. Departure
25. AV Rites Sacred Land
Exact Audio Copy V1.1 from 23. June 2015

EAC extraction logfile from 24. May 2016, 11:27

Russ Landau / Survivor: Blood vs Water

Used drive : ASUS DRW-24B1ST c Adapter: 1 ID: 0

Read mode : SecureUtilize accurate stream : YesDefeat audio cache : YesMake use of C2 pointers : No

Read offset correction : 6Overread into Lead-In and Lead-Out : NoFill up missing offset samples with silence : YesDelete leading and trailing silent blocks : NoNull samples used in CRC calculations : YesUsed interface : Native Win32 interface for Win NT & 2000Gap handling : Appended to previous track

Used output format : User Defined EncoderSelected bitrate : 128 kBit/sQuality : HighAdd ID3 tag : NoCommand line compressor : D:\Dropbox\Applications\Exact Audio Copy\flac.exeAdditional command line options : -8 -e -V -T "ARTIST=%artist%" -T "TITLE=%title%" -T "ALBUM=%albumtitle%" -T "DATE=%year%" -T "TRACKNUMBER=%tracknr%" -T "GENRE=%genre%" -T "PERFORMER=%albuminterpret%" -T "COMPOSER=%composer%" %haslyrics%--tag-from-file=LYRICS="%lyricsfile%"%haslyrics% -T "ALBUMARTIST=%albumartist%" -T "DISCNUMBER=%cdnumber%" -T "TOTALDISCS=%totalcds%" -T "TOTALTRACKS=%numtracks%" -T "COMMENT=%comment%" %source% -o %dest%

TOC of the extracted CD

Track | Start | Length | Start sector | End sector --------------------------------------------------------- 1 | 0:00.00 | 1:11.40 | 0 | 5364 2 | 1:11.40 | 1:27.61 | 5365 | 11950 3 | 2:39.26 | 1:05.19 | 11951 | 16844 4 | 3:44.45 | 1:58.61 | 16845 | 25755 5 | 5:43.31 | 4:13.47 | 25756 | 44777 6 | 9:57.03 | 1:49.28 | 44778 | 52980 7 | 11:46.31 | 1:04.70 | 52981 | 57850 8 | 12:51.26 | 1:07.55 | 57851 | 62930 9 | 13:59.06 | 4:02.42 | 62931 | 81122 10 | 18:01.48 | 2:47.48 | 81123 | 93695 11 | 20:49.21 | 3:22.00 | 93696 | 108845 12 | 24:11.21 | 1:27.69 | 108846 | 115439 13 | 25:39.15 | 1:05.42 | 115440 | 120356 14 | 26:44.57 | 2:32.19 | 120357 | 131775 15 | 29:17.01 | 1:25.16 | 131776 | 138166 16 | 30:42.17 | 1:48.00 | 138167 | 146266 17 | 32:30.17 | 1:54.51 | 146267 | 154867 18 | 34:24.68 | 1:37.26 | 154868 | 162168 19 | 36:02.19 | 3:18.37 | 162169 | 177055 20 | 39:20.56 | 1:21.67 | 177056 | 183197 21 | 40:42.48 | 1:03.62 | 183198 | 187984 22 | 41:46.35 | 5:20.64 | 187985 | 212048 23 | 47:07.24 | 1:13.68 | 212049 | 217591 24 | 48:21.17 | 1:25.58 | 217592 | 224024 25 | 49:47.00 | 1:34.00 | 224025 | 231074

Track 1

Filename D:\Uploads\Russ Landau - 2013 - Survivor Blood vs Water [FLAC]\01 - AV Rites Soldiers.wav

Pre-gap length 0:00:02.00

Peak level 100.0 % Extraction speed 4.1 X Track quality 100.0 % Test CRC EFBD988A Copy CRC EFBD988A Track not present in AccurateRip database Copy OK

Track 2

Filename D:\Uploads\Russ Landau - 2013 - Survivor Blood vs Water [FLAC]\02 - Awesome Arrival.wav

Peak level 100.0 % Extraction speed 4.5 X Track quality 100.0 % Test CRC 0D84B075 Copy CRC 0D84B075 Track not present in AccurateRip database Copy OK

Track 3

Filename D:\Uploads\Russ Landau - 2013 - Survivor Blood vs Water [FLAC]\03 - Blood in the Water.wav

Peak level 100.0 % Extraction speed 4.2 X Track quality 100.0 % Test CRC 12A75C60 Copy CRC 12A75C60 Track not present in AccurateRip database Copy OK

Track 4

Filename D:\Uploads\Russ Landau - 2013 - Survivor Blood vs Water [FLAC]\04 - Te Lucis Redemption.wav

Peak level 100.0 % Extraction speed 5.2 X Track quality 100.0 % Test CRC A9EA39FB Copy CRC A9EA39FB Track not present in AccurateRip database Copy OK

Track 5

Filename D:\Uploads\Russ Landau - 2013 - Survivor Blood vs Water [FLAC]\05 - Heroes Forever.wav

Peak level 100.0 % Extraction speed 5.3 X Track quality 99.9 % Test CRC 3E4E0866 Copy CRC 3E4E0866 Track not present in AccurateRip database Copy OK

Track 6

Filename D:\Uploads\Russ Landau - 2013 - Survivor Blood vs Water [FLAC]\06 - Jungle Cathedral.wav

Peak level 100.0 % Extraction speed 5.7 X Track quality 100.0 % Test CRC 2CB0C485 Copy CRC 2CB0C485 Track not present in AccurateRip database Copy OK

Track 7

Filename D:\Uploads\Russ Landau - 2013 - Survivor Blood vs Water [FLAC]\07 - Unrelenting Cold Open.wav

Peak level 100.0 % Extraction speed 4.9 X Track quality 100.0 % Test CRC 3CAA0514 Copy CRC 3CAA0514 Track not present in AccurateRip database Copy OK

Track 8

Filename D:\Uploads\Russ Landau - 2013 - Survivor Blood vs Water [FLAC]\08 - AV27 MT.wav

Peak level 100.0 % Extraction speed 3.2 X Track quality 99.8 % Test CRC 0DA661BE Copy CRC 0DA661BE Track not present in AccurateRip database Copy OK

Track 9

Filename D:\Uploads\Russ Landau - 2013 - Survivor Blood vs Water [FLAC]\09 - Atonement.wav

Peak level 100.0 % Extraction speed 7.2 X Track quality 100.0 % Test CRC 434089DF Copy CRC 434089DF Track not present in AccurateRip database Copy OK

Track 10

Filename D:\Uploads\Russ Landau - 2013 - Survivor Blood vs Water [FLAC]\10 - Dawning Into Glory.wav

Peak level 96.0 % Extraction speed 5.4 X Track quality 99.9 % Test CRC 9A66C0BB Copy CRC 9A66C0BB Track not present in AccurateRip database Copy OK

Track 11

Filename D:\Uploads\Russ Landau - 2013 - Survivor Blood vs Water [FLAC]\11 - Dramatic Challenge.wav

Peak level 100.0 % Extraction speed 7.6 X Track quality 100.0 % Test CRC D6AF15F6 Copy CRC D6AF15F6 Track not present in AccurateRip database Copy OK

Track 12

Filename D:\Uploads\Russ Landau - 2013 - Survivor Blood vs Water [FLAC]\12 - Lamentation.wav

Peak level 100.0 % Extraction speed 6.4 X Track quality 100.0 % Test CRC CD70E084 Copy CRC CD70E084 Track not present in AccurateRip database Copy OK

Track 13

Filename D:\Uploads\Russ Landau - 2013 - Survivor Blood vs Water [FLAC]\13 - Gods & Monsters.wav

Peak level 100.0 % Extraction speed 5.8 X Track quality 100.0 % Test CRC 97BFE31B Copy CRC 97BFE31B Track not present in AccurateRip database Copy OK

Track 14

Filename D:\Uploads\Russ Landau - 2013 - Survivor Blood vs Water [FLAC]\14 - Rise To It.wav

Peak level 99.0 % Extraction speed 7.4 X Track quality 100.0 % Test CRC AA2CA72C Copy CRC AA2CA72C Track not present in AccurateRip database Copy OK

Track 15

Filename D:\Uploads\Russ Landau - 2013 - Survivor Blood vs Water [FLAC]\15 - In the Balance.wav

Peak level 100.0 % Extraction speed 6.6 X Track quality 100.0 % Test CRC 02B423C6 Copy CRC 02B423C6 Track not present in AccurateRip database Copy OK

Track 16

Filename D:\Uploads\Russ Landau - 2013 - Survivor Blood vs Water [FLAC]\16 - Atoning.wav

Peak level 100.0 % Extraction speed 7.2 X Track quality 100.0 % Test CRC 1580D713 Copy CRC 1580D713 Track not present in AccurateRip database Copy OK

Track 17

Filename D:\Uploads\Russ Landau - 2013 - Survivor Blood vs Water [FLAC]\17 - Benedecite.wav

Peak level 99.8 % Extraction speed 7.4 X Track quality 100.0 % Test CRC 3D293A72 Copy CRC 3D293A72 Track not present in AccurateRip database Copy OK

Track 18

Filename D:\Uploads\Russ Landau - 2013 - Survivor Blood vs Water [FLAC]\18 - Corruption.wav

Peak level 98.9 % Extraction speed 7.2 X Track quality 100.0 % Test CRC EDB28452 Copy CRC EDB28452 Track not present in AccurateRip database Copy OK

Track 19

Filename D:\Uploads\Russ Landau - 2013 - Survivor Blood vs Water [FLAC]\19 - Vivace Challenge.wav

Peak level 99.2 % Extraction speed 8.4 X Track quality 100.0 % Test CRC 32DE05DB Copy CRC 32DE05DB Track not present in AccurateRip database Copy OK

Track 20

Filename D:\Uploads\Russ Landau - 2013 - Survivor Blood vs Water [FLAC]\20 - Fu Man Chu.wav

Peak level 98.9 % Extraction speed 6.8 X Track quality 100.0 % Test CRC 4ABD99DB Copy CRC 4ABD99DB Track not present in AccurateRip database Copy OK

Track 21

Filename D:\Uploads\Russ Landau - 2013 - Survivor Blood vs Water [FLAC]\21 - Rites in Spirit.wav

Peak level 98.8 % Extraction speed 6.3 X Track quality 100.0 % Test CRC 0A996AAA Copy CRC 0A996AAA Track not present in AccurateRip database Copy OK

Track 22

Filename D:\Uploads\Russ Landau - 2013 - Survivor Blood vs Water [FLAC]\22 - Testament.wav

Peak level 100.0 % Extraction speed 9.8 X Track quality 100.0 % Test CRC A12C7F62 Copy CRC A12C7F62 Track not present in AccurateRip database Copy OK

Track 23

Filename D:\Uploads\Russ Landau - 2013 - Survivor Blood vs Water [FLAC]\23 - March to Tribal.wav

Peak level 100.0 % Extraction speed 7.2 X Track quality 100.0 % Test CRC 9B4F48CA Copy CRC 9B4F48CA Track not present in AccurateRip database Copy OK

Track 24

Filename D:\Uploads\Russ Landau - 2013 - Survivor Blood vs Water [FLAC]\24 - Departure.wav

Peak level 99.4 % Extraction speed 7.7 X Track quality 100.0 % Test CRC DEFABDA7 Copy CRC DEFABDA7 Track not present in AccurateRip database Copy OK

Track 25

Filename D:\Uploads\Russ Landau - 2013 - Survivor Blood vs Water [FLAC]\25 - AV Rites Sacred Land.wav

Peak level 98.8 % Extraction speed 7.9 X Track quality 100.0 % Test CRC 327B2698 Copy CRC 327B2698 Track not present in AccurateRip database Copy OK

None of the tracks are present in the AccurateRip database

No errors occurred

End of status report

---- CUETools DB Plugin V2.1.6

[CTDB TOCID: iherDv2awLKUrqY.c3EUNvev2jw-] disk not present in databaseSubmit result: iherDv2awLKUrqY.c3EUNvev2jw- has been uploaded

==== Log checksum DBFEBF006940C81311905FA9264FAF203AB853EAFFA9430ABBC50549818CE857 ====
REM GENRE SoundtrackREM DATE 2013REM DISCID 650C0919REM COMMENT "ExactAudioCopy v1.1"PERFORMER "Russ Landau"TITLE "Survivor: Blood vs Water"FILE "01 - AV Rites Soldiers.wav" WAVE TRACK 01 AUDIO TITLE "AV Rites Soldiers" PERFORMER "Russ Landau" INDEX 01 00:00:00FILE "02 - Awesome Arrival.wav" WAVE TRACK 02 AUDIO TITLE "Awesome Arrival" PERFORMER "Russ Landau" INDEX 01 00:00:00FILE "03 - Blood in the Water.wav" WAVE TRACK 03 AUDIO TITLE "Blood in the Water" PERFORMER "Russ Landau" INDEX 01 00:00:00FILE "04 - Te Lucis Redemption.wav" WAVE TRACK 04 AUDIO TITLE "Te Lucis Redemption" PERFORMER "Russ Landau" INDEX 01 00:00:00FILE "05 - Heroes Forever.wav" WAVE TRACK 05 AUDIO TITLE "Heroes Forever" PERFORMER "Russ Landau" INDEX 01 00:00:00FILE "06 - Jungle Cathedral.wav" WAVE TRACK 06 AUDIO TITLE "Jungle Cathedral" PERFORMER "Russ Landau" INDEX 01 00:00:00FILE "07 - Unrelenting Cold Open.wav" WAVE TRACK 07 AUDIO TITLE "Unrelenting Cold Open" PERFORMER "Russ Landau" INDEX 01 00:00:00FILE "08 - AV27 MT.wav" WAVE TRACK 08 AUDIO TITLE "AV27 MT" PERFORMER "Russ Landau" INDEX 01 00:00:00FILE "09 - Atonement.wav" WAVE TRACK 09 AUDIO TITLE "Atonement" PERFORMER "Russ Landau" INDEX 01 00:00:00FILE "10 - Dawning Into Glory.wav" WAVE TRACK 10 AUDIO TITLE "Dawning Into Glory" PERFORMER "Russ Landau" INDEX 01 00:00:00FILE "11 - Dramatic Challenge.wav" WAVE TRACK 11 AUDIO TITLE "Dramatic Challenge" PERFORMER "Russ Landau" INDEX 01 00:00:00FILE "12 - Lamentation.wav" WAVE TRACK 12 AUDIO TITLE "Lamentation" PERFORMER "Russ Landau" INDEX 01 00:00:00FILE "13 - Gods & Monsters.wav" WAVE TRACK 13 AUDIO TITLE "Gods & Monsters" PERFORMER "Russ Landau" INDEX 01 00:00:00FILE "14 - Rise To It.wav" WAVE TRACK 14 AUDIO TITLE "Rise To It" PERFORMER "Russ Landau" INDEX 01 00:00:00FILE "15 - In the Balance.wav" WAVE TRACK 15 AUDIO TITLE "In the Balance" PERFORMER "Russ Landau" INDEX 01 00:00:00FILE "16 - Atoning.wav" WAVE TRACK 16 AUDIO TITLE "Atoning" PERFORMER "Russ Landau" INDEX 01 00:00:00FILE "17 - Benedecite.wav" WAVE TRACK 17 AUDIO TITLE "Benedecite" PERFORMER "Russ Landau" INDEX 01 00:00:00FILE "18 - Corruption.wav" WAVE TRACK 18 AUDIO TITLE "Corruption" PERFORMER "Russ Landau" INDEX 01 00:00:00FILE "19 - Vivace Challenge.wav" WAVE TRACK 19 AUDIO TITLE "Vivace Challenge" PERFORMER "Russ Landau" INDEX 01 00:00:00FILE "20 - Fu Man Chu.wav" WAVE TRACK 20 AUDIO TITLE "Fu Man Chu" PERFORMER "Russ Landau" INDEX 01 00:00:00FILE "21 - Rites in Spirit.wav" WAVE TRACK 21 AUDIO TITLE "Rites in Spirit" PERFORMER "Russ Landau" INDEX 01 00:00:00FILE "22 - Testament.wav" WAVE TRACK 22 AUDIO TITLE "Testament" PERFORMER "Russ Landau" INDEX 01 00:00:00FILE "23 - March to Tribal.wav" WAVE TRACK 23 AUDIO TITLE "March to Tribal" PERFORMER "Russ Landau" INDEX 01 00:00:00FILE "24 - Departure.wav" WAVE TRACK 24 AUDIO TITLE "Departure" PERFORMER "Russ Landau" INDEX 01 00:00:00FILE "25 - AV Rites Sacred Land.wav" WAVE TRACK 25 AUDIO TITLE "AV Rites Sacred Land" PERFORMER "Russ Landau" INDEX 01 00:00:00


Трекер:  [ 30-Июн-2017 22:06 ]

  

Скачать .torrent

Размер .torrent файла 13 KB


Размер: 286 MB
Хэш (hash) релиза: b708c3de4e189d947e1f915d0cbc4858aa5d9e57

Еще никто не оставлял запись к записи скачать торрент Шоу. Американский Последний герой 27 Survivor 27 Blood vs Water . Будь первым!

!Обратная связь