Скачать через торрент Эроманга-сенсей Eromanga Sensei бесплатно Аниме Все серии на русском torrent

Если у вас наблюдаются проблемы со скриншотами, переходом по ссылками, скачиванием торрентов - проблемы в блокировщике рекламы AdBlock. #хорошегоДня!


Статистика раздачи
Размер:  921 MB   |    Зарегистрирован:  5 месяцев 14 дней   |    .torrent скачан:  24 раза   |   
Раздают:  1  
   
Загрузка...
 
Автор Сообщение

Galfimbul

avatar Galfimbul


Год выпуска: 2017
Страна: Япония
Жанр: комедия, романтика
Продолжительность: ТВ, 12 эп. по 24 мин.
Выпуск: c 09.04.2017 по 25.06.2017Перевод:

русские субтитры от SovetRomantica (полные/вспомогательные)
перевод: Yamada, редактура: Ristretto

Режиссер: Такэсита Рёхэй
Студия: A-1 Pictures Inc.Описание:
Масамунэ Изуми — пятнадцатилетний школьник, который зарабатывает себе на жизнь тем, что пишет ранобэ. С иллюстрациями ему помогает некий человек под псевдонимом «Эроманга». Масамунэ понятия не имеет, кто этот человек, так как он работает только через Интернет и старается скрывать свою истинную личность.

Сагири Изуми — младшая сводная сестренка Масамунэ. Она хикикомори, давно забросившая школу и уже как год не покидающая свой дом. Сагири ни с кем не общается, даже со своим братом. И поэтому важной целью для Масамунэ стало совершенствование своих литературных навыков, что позволило бы ему заработать достаточно денег, чтобы содержать себя и свою младшую сестру.

Но однажды он случайно узнает, что Сагири и есть «Эроманга». И, возможно, она даже зарабатывает намного больше, чем он сам.
© UrAgAnChIkИнформационные ссылки: AniDB || World Art || MALКачество: BDRip
Энкод: Winter - RG Pantheon
Тип видео: без хардсаба, без линковки
Формат: mkv
Видео: x264 (Hi10p), 1280x720, ~2200 Kbps, 23.976 fps
Аудио JAP: Vorbis, 48000Hz, ~256 Kbps, 2ch
Аудио RUS 1: AC3, 48000Hz, ~192Kbps, 2ch (внешними файлами)
двухголосая (ж/м) от Trina_D & Cuba77 (AniDub)
01. My Little Sister, and the Sealed Room
02. Class Rep with a Normie Life, and a Fearless Fairy
03. Buck Naked Mansion and the Fallen Master
04. Eromanga Sensei
05. Let`s Plan a Light-Novel with Your Little Sister
06. Masamune Izumi and the Nemesis of Ten Million Copies
07. Little Sister and the Most Interesting Novel in the World
08. Dreaming Sagiri and Summer Fireworks
09. Little Sister and the Fairy Island
10. Masamune Izumi and the Younger Senpai
11. How the Two Met and Future Siblings
12. Eromanga Festival
...5390951
- 720p
...5385458
...5386407
- BDRip
Общее
Уникальный идентификатор : 197921052856488518033336062748841037458 (0x94E6354EB2DA571680ACCD54D28D4E92)
Полное имя : A:\Anime\720p\Eromanga Sensei [BD] [720p]\[W] Eromanga Sensei 01 [BDrip 1280x720 x264 Vorbis].mkv
Формат : Matroska
Версия формата : Version 2
Размер файла : 438 Мбайт
Продолжительность : 23 м.
Режим общего битрейта : Переменный
Общий поток : 2584 Кбит/сек
Дата кодирования : UTC 2017-06-29 21:45:49
Программа кодирования : mkvmerge v2.9.8 ('C'est le bon') built on Aug 13 2009 12:49:06
Библиотека кодирования : libebml v0.7.7 + libmatroska v0.8.1

Видео
Идентификатор : 1
Формат : AVC
Формат/Информация : Advanced Video Codec
Профиль формата : High 10@L4.1
Параметр CABAC формата : Да
Параметр ReFrames формата : 9 кадров
Идентификатор кодека : V_MPEG4/ISO/AVC
Продолжительность : 23 м.
Битрейт : 2276 Кбит/сек
Ширина : 1280 пикселей
Высота : 720 пикселей
Соотношение сторон : 16:9
Режим частоты кадров : Постоянный
Частота кадров : 23,976 кадра/сек
Цветовое пространство : YUV
Субдискретизация насыщенности : 4:2:0
Битовая глубина : 10 бит
Тип развёртки : Прогрессивная
Бит/(Пиксели*Кадры) : 0.103
Размер потока : 386 Мбайт (88%)
Библиотека кодирования : x264 core 148 r2694 3b70645
Настройки программы : cabac=1 / ref=9 / deblock=1:-2:-2 / analyse=0x3:0x133 / me=umh / subme=9 / psy=1 / psy_rd=0.90:0.00 / mixed_ref=1 / me_range=24 / chroma_me=1 / trellis=2 / 8x8dct=1 / cqm=0 / deadzone=21,11 / fast_pskip=1 / chroma_qp_offset=-2 / threads=12 / lookahead_threads=2 / sliced_threads=0 / nr=0 / decimate=0 / interlaced=0 / bluray_compat=0 / constrained_intra=0 / bframes=8 / b_pyramid=2 / b_adapt=2 / b_bias=0 / direct=1 / weightb=1 / open_gop=0 / weightp=2 / keyint=250 / keyint_min=23 / scenecut=40 / intra_refresh=0 / rc=crf / mbtree=0 / crf=15.7 / qcomp=0.70 / qpmin=9 / qpmax=40 / qpstep=4 / ip_ratio=1.40 / pb_ratio=1.30 / aq=1:0.90
Default : Нет
Forced : Нет

Аудио
Идентификатор : 2
Формат : Vorbis
Параметр Floor формата : 1
Идентификатор кодека : A_VORBIS
Продолжительность : 23 м.
Вид битрейта : Переменный
Битрейт : 256 Кбит/сек
Каналы : 2 канала
Частота : 48,0 КГц
Метод сжатия : С потерями
Размер потока : 43,4 Мбайт (10%)
Библиотека кодирования : libVorbis (??] (20150105 (??])
Язык : Japanese
Default : Да
Forced : Нет
Выбор видео, перевода, озвучки, а также типа сборки материала осуществляется релизером и не подлежит обсуждению. Если вы считаете, что раздаваемый материал противоречит правилам раздела "Аниме" rutracker.org, сообщите об этом одному из модераторов раздела.

В случае появления нового материала или же лучшего по качеству материала релизер оставляет за собой право обновить раздачу. В этом случае вам необходимо ознакомиться с изменениями (добавлениями) и перекачать торрент.

Данный релиз предназначен для просмотра на ПК. Воспроизведение на иных проигрывателях не гарантируется. Для просмотра рекомендуется Media Player Classic с установленным пакетом кодеков K-Lite.

Данный релиз содержит 10-битное видео (Hi10p). Для корректного воспроизведения обязательно используйте кодеки, поддерживающие 10-битное видео.
Обсудить частные случаи проблем с воспроизведением и получить дополнительную информацию можно здесь.

Данный релиз предназначен для просмотра с внешними субтитрами и внешними звуковыми дорожками.

Для просмотра с внешней звуковой дорожкой нужно:
перекинуть файлы .mka из папки "RUS Sound [<автор(ы) озвучки>]" в одну папку с видео и переключить звуковую дорожку в плеере при просмотре. Как это сделать в разных плеерах подробно описано здесь.
Для просмотра с субтитрами нужно:
перекинуть файлы .ass из папки "RUS Subtitles [<автор(ы) перевода>]" в одну папку с видео - плеер подгрузит их автоматически при открытии видео.

Если у вас возникли проблемы с просмотром, не связанные с описанным выше, сообщите о них автору раздачи посредством сообщения в теме или ЛС Aglenn.


Трекер:  [ 01-Июл-2017 21:30 ]

  

Скачать .torrent

Размер .torrent файла 20 KB


Размер: 921 MB
Хэш (hash) релиза: a512fb9b04b68d7c5c321aed258f3ca015c210bb
Подписка на обновления:

Торренты, похожие на Эроманга-сенсей Eromanga Sensei скачать торрент

Форум Название Автор Размер S L Добавлен
Аниме | HD Rips ·· Эроманга-сенсей / Eromanga Sensei (Такэсита Рёхэй) [TV] [2 из 12] [без хардсаба] [RUS(ext), JAP+SUB] [2017, комедия, романтика, BDRemux] [1080p] Galfimbul 1339204533712.47 GB 0 0 1499623343

21:02

9-Июл-17

Аниме | Rips ·· Эроманга-сенсей / Eromanga Sensei [TV] [01-08 из 12] [Без хардсаба] [RUS(ext), JAP, SUB] [2017, Комедия, Драма, Романтика, HDTVRip] [720p] Galfimbul 36867450293.43 GB 0 0 1496964805

02:33

9-Июн-17

Аниме | Rips ·· Эроманга-сенсей / Eromanga Sensei [TV] [01-07 из 12] [Без хардсаба] [RUS(int), JAP+SUB] [2017, комедия, романтика, HDTVRip] [HWP] Galfimbul 17295092311.61 GB 0 0 1495975787

15:49

28-Май-17

Аниме | Rips ·· Эроманга-сенсей / Eromanga Sensei [TV] [01 из 12] [Без хардсаба] [RUS(ext), JAP, SUB] [2017, Комедия, Драма, Романтика, HDTVRip] [720p] Galfimbul 421067000402 MB 0 0 1491968037

06:33

12-Апр-17

Аниме | HD Rips ·· Эроманга-сэнсэй / Eromanga-sensei / Эроманга-сенсей [TV] [Без хардсаба] [01-09 из 12] [JAP+SUB] & [01-07 из 12] [RUS(ext)] [2017, комедия, романтика, драма, HDTVRip] [720p] Galfimbul 31455037832.93 GB 0 0 1496966097

02:54

9-Июн-17

Аниме | HD Rips ·· Эроманга-сэнсэй / Eromanga-sensei / Эроманга-сенсей [TV] [Без хардсаба] [01-04 из 12] [JAP+SUB] & [01-03 из 12] [RUS(ext)] [2017, комедия, романтика, драма, HDTVRip] [720p] Galfimbul 14266736021.33 GB 0 0 1493578766

21:59

30-Апр-17

Еще никто не оставлял запись к записи скачать торрент Эроманга-сенсей Eromanga Sensei . Будь первым!

!Обратная связь