Скачать через торрент [VIDEO] Логан Logan бесплатно русская версия torrent активатор

Если у вас наблюдаются проблемы со скриншотами, переходом по ссылками, скачиванием торрентов - проблемы в блокировщике рекламы AdBlock. #хорошегоДня!


Статистика раздачи
Размер:  2.16 GB   |    Зарегистрирован:  5 месяцев 16 дней   |    .torrent скачан:  32 раза   |   
Раздают:  1  
   
Загрузка...
 
Автор Сообщение

Galfimbul

avatar Galfimbul


Логан / Logan«Его время пришло»
Год выпуска: 2017
Страна: США / 20th Century Fox Film Corporation
Жанр: фантастика, боевик, триллер, драма
Продолжительность: 02:17:23
Перевод №1: Русский Профессиональный (полное дублирование) Blu-ray EUR
Перевод №2: Украинский Профессиональный (полное дублирование) Blu-ray EUR
Перевод №3: Русский Авторский (одноголосый, закадровый) Д. Есарев
Перевод №4: Русский Авторский (одноголосый, закадровый) М. Чадов
Оригинальная дорожка: Есть
Субтитры: русские (forced, full), украинские (full), английские (full, SDH)Режиссер: Джеймс Мэнголд / James MangoldВ ролях: Хью Джекман, Патрик Стюарт, Дафни Кин, Бойд Холбрук, Стивен Мерчант, Элизабет Родригес, Ричард Э. Грант, Эрик Ла Салль, Элиз Нил, Куинси Фаус и другие .Описание: В недалеком будущем уставший от жизни Логан заботится о больном профессоре Икс, который прячется неподалеку от мексиканской границы. Но Логан больше не сможет скрывать свое прошлое, когда встретится с юным мутантом, которого преследуют темные силы. Релиз группы Качество: BDRip / рип с Blu-ray disc 1080p [EUR]
Формат: MP4
Видео кодек: H.264
Аудио кодек: AAC
Видео: 960х402 AR:2.39 1604 kbps 23.976 fps
Аудио №1: [Russian] 2ch 48 kHz 128 kbps - Профессиональный (полное дублирование) Blu-ray EUR
Аудио №2: [Ukrainian] 2ch 48 kHz 128 kbps - Профессиональный (полное дублирование) Blu-ray EUR
Аудио №3: [Russian] 2ch 48 kHz 128 kbps - Авторский (одноголосый, закадровый) Д. Есарев
Аудио №4: [Russian] 2ch 48 kHz 128 kbps - Авторский (одноголосый, закадровый) М. Чадов
Аудио №5: [English] 2ch 48 kHz 128 kbps - Оригинал
avs [info]: 960x402p 1:1 @ 24000/1001 fps (cfr)
x264 [info]: using SAR=1/1
x264 [info]: using cpu capabilities: MMX2 SSE2Fast SSSE3 SSE4.2 AVX FMA3 AVX2 LZCNT BMI2
x264 [info]: profile High, level 4.1

x264 [info]: frame I:1891 Avg QP:14.78 size: 54131
x264 [info]: frame P:48348 Avg QP:18.73 size: 16652
x264 [info]: frame B:147402 Avg QP:20.89 size: 5045
x264 [info]: consecutive B-frames: 3.7% 4.3% 11.1% 26.4% 18.3% 25.7% 5.4% 3.0% 2.2%
x264 [info]: mb I I16..4: 5.5% 70.5% 24.0%
x264 [info]: mb P I16..4: 1.1% 10.6% 2.3% P16..4: 33.6% 36.1% 10.4% 0.0% 0.0% skip: 5.9%
x264 [info]: mb B I16..4: 0.1% 1.3% 0.3% B16..8: 33.5% 18.7% 2.5% direct: 4.0% skip:39.5% L0:43.3% L1:42.9% BI:13.8%
x264 [info]: 8x8 transform intra:74.8% inter:62.4%
x264 [info]: direct mvs spatial:97.9% temporal:2.1%
x264 [info]: coded y,uvDC,uvAC intra: 83.6% 83.9% 58.7% inter: 19.2% 16.2% 7.3%
x264 [info]: i16 v,h,dc,p: 17% 25% 5% 53%
x264 [info]: i8 v,h,dc,ddl,ddr,vr,hd,vl,hu: 11% 10% 5% 9% 13% 13% 13% 12% 14%
x264 [info]: i4 v,h,dc,ddl,ddr,vr,hd,vl,hu: 26% 12% 4% 7% 12% 11% 10% 8% 10%
x264 [info]: i8c dc,h,v,p: 36% 26% 20% 17%
x264 [info]: Weighted P-Frames: Y:9.1% UV:5.0%
x264 [info]: ref P L0: 50.1% 10.8% 16.0% 6.6% 5.4% 3.9% 3.1% 1.8% 2.2% 0.2% 0.0%
x264 [info]: ref B L0: 74.2% 11.2% 5.7% 2.8% 3.1% 1.7% 1.0% 0.3%
x264 [info]: ref B L1: 94.4% 5.6%
x264 [info]: kb/s:1602.31

encoded 197641 frames, 16.02 fps, 1602.31 kb/s
GeneralComplete name : D:\Torrents\Logan.2017.BDRip.x264.960x.rip by Frost O.S.mp4Format : MPEG-4Format profile : Base MediaCodec ID : isom (isom)File size : 2.16 GiBDuration : 2 h 17 minOverall bit rate mode : VariableOverall bit rate : 2 254 kb/sEncoded date : UTC 2017-07-01 16:49:54Tagged date : UTC 2017-07-01 16:49:54Writing application : My MP4Box GUI 0.6.0.6VideoID : 1Format : AVCFormat/Info : Advanced Video CodecFormat profile : High@L4.1Format settings, CABAC : YesFormat settings, ReFrames : 9 framesCodec ID : avc1Codec ID/Info : Advanced Video CodingDuration : 2 h 17 minBit rate : 1 604 kb/sMaximum bit rate : 8 672 kb/sWidth : 960 pixelsHeight : 402 pixelsDisplay aspect ratio : 2.40:1Frame rate mode : ConstantFrame rate : 23.976 (24000/1001) FPSColor space : YUVChroma subsampling : 4:2:0Bit depth : 8 bitsScan type : ProgressiveBits/(Pixel*Frame) : 0.173Stream size : 1.54 GiB (71%)Title : Logan.2017.BDRip.x264.960x.rip by Frost O.S.mp4Writing library : x264 core 148 r2744 b97ae06Encoding settings : cabac=1 / ref=9 / deblock=1:-2:-2 / analyse=0x3:0x113 / me=umh / subme=11 / psy=1 / psy_rd=0.93:0.00 / mixed_ref=1 / me_range=32 / chroma_me=1 / trellis=2 / 8x8dct=1 / cqm=0 / deadzone=21,11 / fast_pskip=0 / chroma_qp_offset=-2 / threads=6 / lookahead_threads=1 / sliced_threads=0 / nr=0 / decimate=0 / interlaced=0 / bluray_compat=0 / constrained_intra=0 / bframes=8 / b_pyramid=2 / b_adapt=2 / b_bias=0 / direct=3 / weightb=1 / open_gop=0 / weightp=2 / keyint=250 / keyint_min=23 / scenecut=40 / intra_refresh=0 / rc=2pass / mbtree=0 / bitrate=1604 / ratetol=1.0 / qcomp=0.80 / qpmin=0 / qpmax=69 / qpstep=4 / cplxblur=20.0 / qblur=0.5 / ip_ratio=1.40 / pb_ratio=1.30 / aq=3:0.70Encoded date : UTC 2017-07-01 10:45:17Tagged date : UTC 2017-07-01 16:51:37Color range : LimitedColor primaries : BT.709Transfer characteristics : BT.709Matrix coefficients : BT.709

Audio #1ID : 2Format : AACFormat/Info : Advanced Audio CodecFormat profile : LCCodec ID : 40Duration : 2 h 17 minBit rate mode : VariableBit rate : 128 kb/sMaximum bit rate : 138 kb/sChannel(s) : 2 channelsChannel positions : Front: L RSampling rate : 48.0 kHzFrame rate : 46.875 FPS (1024 spf)Compression mode : LossyStream size : 126 MiB (6%)Title : Russian / Dub, Blu-ray EUREncoded date : UTC 2017-07-01 16:50:31Tagged date : UTC 2017-07-01 16:51:37

Audio #2ID : 3Format : AACFormat/Info : Advanced Audio CodecFormat profile : LCCodec ID : 40Duration : 2 h 17 minBit rate mode : VariableBit rate : 128 kb/sMaximum bit rate : 138 kb/sChannel(s) : 2 channelsChannel positions : Front: L RSampling rate : 48.0 kHzFrame rate : 46.875 FPS (1024 spf)Compression mode : LossyStream size : 126 MiB (6%)Title : Ukrainian / Dub, Blu-ray EUREncoded date : UTC 2017-07-01 16:50:56Tagged date : UTC 2017-07-01 16:51:37

Audio #3ID : 4Format : AACFormat/Info : Advanced Audio CodecFormat profile : LCCodec ID : 40Duration : 2 h 17 minBit rate mode : VariableBit rate : 128 kb/sMaximum bit rate : 138 kb/sChannel(s) : 2 channelsChannel positions : Front: L RSampling rate : 48.0 kHzFrame rate : 46.875 FPS (1024 spf)Compression mode : LossyStream size : 126 MiB (6%)Title : Russian / VO, EsarevEncoded date : UTC 2017-07-01 16:51:11Tagged date : UTC 2017-07-01 16:51:37

Audio #4ID : 5Format : AACFormat/Info : Advanced Audio CodecFormat profile : LCCodec ID : 40Duration : 2 h 17 minBit rate mode : VariableBit rate : 128 kb/sMaximum bit rate : 138 kb/sChannel(s) : 2 channelsChannel positions : Front: L RSampling rate : 48.0 kHzFrame rate : 46.875 FPS (1024 spf)Compression mode : LossyStream size : 126 MiB (6%)Title : Russian / VO, ChadovEncoded date : UTC 2017-07-01 16:51:18Tagged date : UTC 2017-07-01 16:51:37

Audio #5ID : 6Format : AACFormat/Info : Advanced Audio CodecFormat profile : LCCodec ID : 40Duration : 2 h 17 minBit rate mode : VariableBit rate : 128 kb/sMaximum bit rate : 138 kb/sChannel(s) : 2 channelsChannel positions : Front: L RSampling rate : 48.0 kHzFrame rate : 46.875 FPS (1024 spf)Compression mode : LossyStream size : 126 MiB (6%)Title : English / OriginalEncoded date : UTC 2017-07-01 16:51:24Tagged date : UTC 2017-07-01 16:51:37

Text #1ID : 7Format : Timed TextCodec ID : tx3gDuration : 1 h 40 minBit rate mode : VariableBit rate : 0 b/sStream size : 148 Bytes (0%)Title : Russian / ForcedForced : NoEncoded date : UTC 2017-07-01 16:51:37Tagged date : UTC 2017-07-01 16:51:37

Text #2ID : 8Format : Timed TextCodec ID : tx3gDuration : 2 h 11 minBit rate mode : VariableBit rate : 70 b/sStream size : 67.5 KiB (0%)Title : Russian / FullForced : NoEncoded date : UTC 2017-07-01 16:51:37Tagged date : UTC 2017-07-01 16:51:37

Text #3ID : 9Format : Timed TextCodec ID : tx3gDuration : 2 h 17 minBit rate mode : VariableBit rate : 67 b/sStream size : 67.4 KiB (0%)Title : Ukrainian / FullForced : NoEncoded date : UTC 2017-07-01 16:51:37Tagged date : UTC 2017-07-01 16:51:37

Text #4ID : 10Format : Timed TextCodec ID : tx3gDuration : 2 h 14 minBit rate mode : VariableBit rate : 50 b/sStream size : 49.1 KiB (0%)Title : English / FullForced : NoEncoded date : UTC 2017-07-01 16:51:37Tagged date : UTC 2017-07-01 16:51:37

Text #5ID : 11Format : Timed TextCodec ID : tx3gDuration : 2 h 14 minBit rate mode : VariableBit rate : 59 b/sStream size : 58.5 KiB (0%)Title : English / SDHForced : NoEncoded date : UTC 2017-07-01 16:51:37Tagged date : UTC 2017-07-01 16:51:37


Трекер:  [ 01-Июл-2017 21:42 ]

  

Скачать .torrent

Размер .torrent файла 11 KB


Размер: 2.16 GB
Хэш (hash) релиза: 49b5e46c0d816c274cd0f360f545d707b8b0d9e3

Торренты, похожие на [VIDEO] Логан Logan скачать торрент

Форум Название Автор Размер S L Добавлен
Видео (Фильмы/Клипы) ·· [VIDEO] Логан / Logan (Джеймс Мэнголд / James Mangold) [2017, фантастика, боевик, триллер, драма, HDRip] [3GP, 320x] [Noir Edition] Dub Blu-ray EUR Galfimbul 495306064472 MB 0 0 1499525045

17:44

8-Июл-17

Видео (Фильмы/Клипы) ·· [VIDEO] Логан / Logan (Джеймс Мэнголд / James Mangold) [2017, фантастика, боевик, триллер, драма, HDRip] [MP4, 480x] [Noir Edition] Dub Blu-ray EUR Galfimbul 657273504627 MB 0 0 1499525034

17:43

8-Июл-17

Видео (Фильмы/Клипы) ·· [VIDEO] Логан / Logan (Джеймс Мэнголд / James Mangold) [2017, фантастика, боевик, триллер, драма, BDRip] [MP4, 960x] [Noir Edition] Dub (Rus, Ukr), VO Есарев, VO Чадов, Original, Sub (rus, ukr, eng) Galfimbul 22153807482.06 GB 0 0 1499525024

17:43

8-Июл-17

Видео (Фильмы/Клипы) ·· [VIDEO] Логан / Logan (Джеймс Мэнголд / James Mangold) [2017, фантастика, боевик, триллер, драма, HDRip] [3GP, 320x] Dub Blu-ray EUR Galfimbul 495183804472 MB 0 0 1498932812

21:13

1-Июл-17

Видео (Фильмы/Клипы) ·· [VIDEO] Демоны Деборы Логан / The Taking of Deborah Logan (Адам Робител / Adam Robitel) [2014, США, ужасы, триллер, HDRip][MP4, 480x] Dub Galfimbul 433873992414 MB 0 0 1438335074

12:31

31-Июл-15

Видео (Фильмы/Клипы) ·· [VIDEO] Демоны Деборы Логан / The Taking of Deborah Logan (Адам Робител / Adam Robitel) [2015, США, ужасы, триллер, HDRip][MP4, 480x] Dub Galfimbul 433910274414 MB 0 0 1435042898

10:01

23-Июн-15

Еще никто не оставлял запись к записи скачать торрент [VIDEO] Логан Logan . Будь первым!

!Обратная связь