Скачать через торрент [VIDEO] Красавица и чудовище Beauty and the Beast бесплатно русская версия torrent активатор

Если у вас наблюдаются проблемы со скриншотами, переходом по ссылками, скачиванием торрентов - проблемы в блокировщике рекламы AdBlock. #хорошегоДня!


Статистика раздачи
Размер:  1.81 GB   |    Зарегистрирован:  5 месяцев 12 дней   |    .torrent скачан:  39 раз   |   
Раздают:  1  
   
Загрузка...
 
Автор Сообщение

Galfimbul

avatar Galfimbul


Красавица и чудовище / Beauty and the Beast«Вы наш гость»
Год выпуска: 2017
Страна: США / Walt Disney Pictures
Жанр: мюзикл, фэнтези, мелодрама, семейный
Продолжительность: 02:09:16
Перевод: Русский Профессиональный (полное дублирование) BD EUR |Лицензия
Оригинальная дорожка: Есть
Субтитры: русские (полные), английские (полные, SDH)Режиссер: Билл Кондон / Bill CondonВ ролях: Эмма Уотсон, Дэн Стивенс, Люк Эванс, Джош Гад, Кевин Клайн, Хэтти Морахэн, Хейдн Гвин, Джерард Хоран, Рэй Фиарон, Юэн МакГрегор и другие .Описание: Обозлённая Волшебница превратила принца Адама в отвратительное чудовище за то, что тот был злым, самовлюблённым и грубым. Чтобы снять чары с себя и слуг своего замка, ему необходимо научиться быть добрым, любить и быть любимым. Произойти это должно до того, как с розы, подаренной Волшебницей, упадёт последний лепесток. В далёкой деревушке живёт красивая девушка по имени Белль. Однажды её отец Морис отправляется на ярмарку, но по дороге сбивается с пути. Оказавшись в заколдованном замке, он становится пленником Чудовища. Белль спешит отцу на помощь. Релиз группы Качество: BDRip / рип с BDRemux 1080p
Формат: MP4
Видео кодек: H.264
Аудио кодек: AAC
Видео: 960х402 AR:2.39 1740 kbps 23.976 fps
Аудио №1: [Russian] 2ch 48 kHz 128 kbps - Профессиональный (полное дублирование) BD EUR |Лицензия
Аудио №2: [English] 2ch 48 kHz 128 kbps - Оригинал
avs [info]: 960x402p 1:1 @ 24000/1001 fps (cfr)
x264 [info]: using SAR=1/1
x264 [info]: using cpu capabilities: MMX2 SSE2Fast SSSE3 SSE4.2 AVX FMA3 AVX2 LZCNT BMI2
x264 [info]: profile High, level 4.1

x264 [info]: frame I:2056 Avg QP:16.28 size: 60302
x264 [info]: frame P:47603 Avg QP:20.15 size: 17971
x264 [info]: frame B:136320 Avg QP:22.02 size: 5193
x264 [info]: consecutive B-frames: 4.0% 4.5% 15.4% 25.4% 19.9% 25.6% 3.7% 1.4%
x264 [info]: mb I I16..4: 4.1% 71.1% 24.8%
x264 [info]: mb P I16..4: 0.7% 8.1% 2.3% P16..4: 34.2% 37.6% 12.7% 0.0% 0.0% skip: 4.3%
x264 [info]: mb B I16..4: 0.1% 1.1% 0.4% B16..8: 32.9% 18.2% 3.1% direct: 3.9% skip:40.3% L0:39.3% L1:44.3% BI:16.5%
x264 [info]: 8x8 transform intra:71.0% inter:60.5%
x264 [info]: direct mvs spatial:94.3% temporal:5.7%
x264 [info]: coded y,uvDC,uvAC intra: 82.3% 89.7% 67.8% inter: 19.9% 18.8% 9.0%
x264 [info]: i16 v,h,dc,p: 25% 12% 6% 58%
x264 [info]: i8 v,h,dc,ddl,ddr,vr,hd,vl,hu: 16% 8% 5% 9% 13% 13% 13% 12% 13%
x264 [info]: i4 v,h,dc,ddl,ddr,vr,hd,vl,hu: 34% 6% 5% 7% 11% 11% 10% 9% 10%
x264 [info]: i8c dc,h,v,p: 36% 23% 24% 17%
x264 [info]: Weighted P-Frames: Y:10.5% UV:6.9%
x264 [info]: ref P L0: 58.4% 12.9% 13.2% 5.2% 3.5% 2.8% 2.2% 1.5% 0.2% 0.0%
x264 [info]: ref B L0: 84.0% 8.2% 3.9% 1.7% 1.2% 0.7% 0.3%
x264 [info]: ref B L1: 96.1% 3.9%
x264 [info]: kb/s:1740.32

encoded 185979 frames, 15.67 fps, 1740.32 kb/s
GeneralComplete name : D:\Torrents\Beauty and the Beast.2017.BDRip.x264.960x.rip by Frost O.S.mp4Format : MPEG-4Format profile : Base MediaCodec ID : isom (isom)File size : 1.81 GiBDuration : 2 h 9 minOverall bit rate mode : VariableOverall bit rate : 2 002 kb/sEncoded date : UTC 2017-07-01 17:28:16Tagged date : UTC 2017-07-01 17:28:16Writing application : My MP4Box GUI 0.6.0.6

VideoID : 1Format : AVCFormat/Info : Advanced Video CodecFormat profile : High@L4.1Format settings, CABAC : YesFormat settings, ReFrames : 8 framesCodec ID : avc1Codec ID/Info : Advanced Video CodingDuration : 2 h 9 minBit rate : 1 740 kb/sMaximum bit rate : 8 074 kb/sWidth : 960 pixelsHeight : 402 pixelsDisplay aspect ratio : 2.40:1Frame rate mode : ConstantFrame rate : 23.976 (24000/1001) FPSColor space : YUVChroma subsampling : 4:2:0Bit depth : 8 bitsScan type : ProgressiveBits/(Pixel*Frame) : 0.188Stream size : 1.57 GiB (87%)Title : Beauty and the Beast.2017.BDRip.x264.960x.rip by Frost O.S.mp4Writing library : x264 core 148 r2744 b97ae06Encoding settings : cabac=1 / ref=8 / deblock=1:-1:-1 / analyse=0x3:0x113 / me=umh / subme=11 / psy=1 / psy_rd=0.85:0.00 / mixed_ref=1 / me_range=32 / chroma_me=1 / trellis=2 / 8x8dct=1 / cqm=0 / deadzone=21,11 / fast_pskip=0 / chroma_qp_offset=-2 / threads=6 / lookahead_threads=1 / sliced_threads=0 / nr=0 / decimate=0 / interlaced=0 / bluray_compat=0 / constrained_intra=0 / bframes=7 / b_pyramid=2 / b_adapt=2 / b_bias=0 / direct=3 / weightb=1 / open_gop=0 / weightp=2 / keyint=250 / keyint_min=23 / scenecut=40 / intra_refresh=0 / rc=2pass / mbtree=0 / bitrate=1740 / ratetol=1.0 / qcomp=0.70 / qpmin=0 / qpmax=69 / qpstep=4 / cplxblur=20.0 / qblur=0.5 / ip_ratio=1.40 / pb_ratio=1.30 / aq=2:0.70Encoded date : UTC 2017-07-01 15:36:22Tagged date : UTC 2017-07-01 17:28:55Color range : LimitedColor primaries : BT.709Transfer characteristics : BT.709Matrix coefficients : BT.709

Audio #1ID : 2Format : AACFormat/Info : Advanced Audio CodecFormat profile : LCCodec ID : 40Duration : 2 h 9 minBit rate mode : VariableBit rate : 128 kb/sMaximum bit rate : 138 kb/sChannel(s) : 2 channelsChannel positions : Front: L RSampling rate : 48.0 kHzFrame rate : 46.875 FPS (1024 spf)Compression mode : LossyStream size : 118 MiB (6%)Title : Russian / Dub, BD EUREncoded date : UTC 2017-07-01 17:28:45Tagged date : UTC 2017-07-01 17:28:55

Audio #2ID : 3Format : AACFormat/Info : Advanced Audio CodecFormat profile : LCCodec ID : 40Duration : 2 h 9 minBit rate mode : VariableBit rate : 128 kb/sMaximum bit rate : 136 kb/sChannel(s) : 2 channelsChannel positions : Front: L RSampling rate : 48.0 kHzFrame rate : 46.875 FPS (1024 spf)Compression mode : LossyStream size : 118 MiB (6%)Title : English / OriginalEncoded date : UTC 2017-07-01 17:28:51Tagged date : UTC 2017-07-01 17:28:55

Text #1ID : 4Format : Timed TextCodec ID : tx3gDuration : 2 h 2 minBit rate mode : VariableBit rate : 91 b/sStream size : 81.4 KiB (0%)Title : Russian / FullForced : NoEncoded date : UTC 2017-07-01 17:28:55Tagged date : UTC 2017-07-01 17:28:55

Text #2ID : 5Format : Timed TextCodec ID : tx3gDuration : 2 h 8 minBit rate mode : VariableBit rate : 54 b/sStream size : 51.2 KiB (0%)Title : English / FullForced : NoEncoded date : UTC 2017-07-01 17:28:55Tagged date : UTC 2017-07-01 17:28:55

Text #3ID : 6Format : Timed TextCodec ID : tx3gDuration : 2 h 8 minBit rate mode : VariableBit rate : 61 b/sStream size : 57.9 KiB (0%)Title : English / SDHForced : NoEncoded date : UTC 2017-07-01 17:28:55Tagged date : UTC 2017-07-01 17:28:55


Трекер:  [ 01-Июл-2017 21:42 ]

  

Скачать .torrent

Размер .torrent файла 18 KB


Размер: 1.81 GB
Хэш (hash) релиза: 234ee3467d88ee9c1ffc3ddacf790deb783f3b9f

Еще никто не оставлял запись к записи скачать торрент [VIDEO] Красавица и чудовище Beauty and the Beast . Будь первым!

!Обратная связь