Скачать через торрент [VIDEO] Про Красную Шапочку бесплатно русская версия torrent активатор

Если у вас наблюдаются проблемы со скриншотами, переходом по ссылками, скачиванием торрентов - проблемы в блокировщике рекламы AdBlock. #хорошегоДня!


Статистика раздачи
Размер:  1.12 GB   |    Зарегистрирован:  5 месяцев 15 дней   |    .torrent скачан:  29 раз   |   
Раздают:  1  
   
Загрузка...
 
Автор Сообщение

Galfimbul

avatar Galfimbul


Про Красную Шапочку / 2 Серии
Год выпуска: 1977
Страна: СССР
Жанр: сказка
Продолжительность: 01:03:33 (1 серия) + 01:08:53(2 серия)
Перевод: не требуется
Субтитры: нетРежиссер: Леонид НечаевВ ролях: Яна Поплавская, Владимир Басов, Николай Трофимов, Рина Зеленая, Евгений Евстигнеев, Галина Волчек, Ролан Быков, Стефания Станюта, Мария Барабанова, Мария Виноградова, Дима Иосифов и другие .Описание: Продолжение известной старой сказки режиссер Леонид Нечаев сделал очаровательной музыкальной комедией. Старая Волчица решает отомстить наглой Красной Шапке за смерть сына, убитого лесорубами, и поручает волку - профессионалу поймать девчонку. А заодно - научить чему - то полезному второго сына, толстого и доброго, мечтающего только о конфетах. "Группа захвата" готова, и Красная Шапочка, которую хитро выманили из дома, снова идет через лес. Релиз группы Качество: DVDRip / рип с DVD9 "CP Digital"
Формат: MP4
Видео кодек: H.264
Аудио кодек: AACПервая серия
<div class="post-box" style="border-color: #F86926;">Видео: 468x360 AR:4/3 1080 kbps 25 fps
Аудио: 2ch 48 kHz 128 kbps</div>
Вторая серия
<div class="post-box" style="border-color: #F86926;">Видео: 468x360 AR:4/3 1080 kbps 25 fps
Аудио: 2ch 48 kHz 128 kbps</div>
<div class="sp-wrap">
<div class="sp-head folded">Logx264</div>
<div class="sp-body">avs [info]: 468x360p 1:1 @ 25/1 fps (cfr)
x264 [info]: using SAR=1/1
x264 [info]: using cpu capabilities: MMX2 SSE2Fast SSSE3 SSE4.2 AVX FMA3 AVX2 LZCNT BMI2
x264 [info]: profile High, level 4.1

x264 [info]: frame I:682 Avg QP:22.40 size: 26057
x264 [info]: frame P:21317 Avg QP:25.91 size: 10333
x264 [info]: frame B:73337 Avg QP:28.39 size: 3773
x264 [info]: consecutive B-frames: 1.5% 2.4% 7.5% 32.6% 17.1% 32.5% 3.8% 1.6% 0.9%
x264 [info]: mb I I16..4: 3.3% 73.0% 23.7%
x264 [info]: mb P I16..4: 0.5% 12.2% 3.3% P16..4: 32.7% 35.1% 13.1% 2.2% 0.2% skip: 0.8%
x264 [info]: mb B I16..4: 0.1% 1.6% 0.6% B16..8: 39.8% 22.7% 4.1% direct: 5.8% skip:25.3% L0:40.3% L1:42.6% BI:17.1%
x264 [info]: 8x8 transform intra:74.1% inter:58.9%
x264 [info]: direct mvs spatial:97.2% temporal:2.8%
x264 [info]: coded y,uvDC,uvAC intra: 91.7% 67.0% 20.2% inter: 32.7% 15.0% 1.1%
x264 [info]: i16 v,h,dc,p: 31% 33% 2% 34%
x264 [info]: i8 v,h,dc,ddl,ddr,vr,hd,vl,hu: 10% 6% 4% 11% 16% 15% 14% 13% 11%
x264 [info]: i4 v,h,dc,ddl,ddr,vr,hd,vl,hu: 17% 22% 2% 7% 11% 12% 10% 9% 9%
x264 [info]: i8c dc,h,v,p: 30% 27% 21% 22%
x264 [info]: Weighted P-Frames: Y:38.4% UV:17.5%
x264 [info]: ref P L0: 44.3% 14.3% 16.8% 7.7% 5.5% 4.3% 3.7% 2.4% 0.9% 0.0%
x264 [info]: ref B L0: 80.7% 9.1% 4.4% 2.4% 1.8% 1.1% 0.5%
x264 [info]: ref B L1: 96.5% 3.5%
x264 [info]: kb/s:1079.91

encoded 95336 frames, 25.66 fps, 1079.91 kb/s
GeneralComplete name : D:\Torrents\Pro Krasnyu Shapochky.(2 serii).1977.DVDRip.x264.640x\Pro Krasnyu Shapochky.(1 seriya).1977.DVDRip.x264.640x.rip by Frost O.S.mp4Format : MPEG-4Format profile : Base MediaCodec ID : isom (isom)File size : 551 MiBDuration : 1 h 3 minOverall bit rate mode : VariableOverall bit rate : 1 212 kb/sEncoded date : UTC 2017-07-02 12:09:20Tagged date : UTC 2017-07-02 12:09:20Writing application : My MP4Box GUI 0.6.0.6

VideoID : 1Format : AVCFormat/Info : Advanced Video CodecFormat profile : High@L4.1Format settings, CABAC : YesFormat settings, ReFrames : 8 framesCodec ID : avc1Codec ID/Info : Advanced Video CodingDuration : 1 h 3 minBit rate : 1 080 kb/sMaximum bit rate : 3 128 kb/sWidth : 468 pixelsHeight : 360 pixelsDisplay aspect ratio : 4:3Frame rate mode : ConstantFrame rate : 25.000 FPSColor space : YUVChroma subsampling : 4:2:0Bit depth : 8 bitsScan type : ProgressiveBits/(Pixel*Frame) : 0.256Stream size : 491 MiB (89%)Title : Pro Krasnyu Shapochky.(1 seriya).1977.DVDRip.x264.640x.rip by Frost O.S.mp4Writing library : x264 core 148 r2744 b97ae06Encoding settings : cabac=1 / ref=8 / deblock=1:-1:-1 / analyse=0x3:0x133 / me=umh / subme=11 / psy=1 / psy_rd=0.90:0.00 / mixed_ref=1 / me_range=48 / chroma_me=1 / trellis=2 / 8x8dct=1 / cqm=0 / deadzone=21,11 / fast_pskip=0 / chroma_qp_offset=-2 / threads=6 / lookahead_threads=1 / sliced_threads=0 / nr=0 / decimate=0 / interlaced=0 / bluray_compat=0 / constrained_intra=0 / bframes=8 / b_pyramid=2 / b_adapt=2 / b_bias=0 / direct=3 / weightb=1 / open_gop=0 / weightp=2 / keyint=250 / keyint_min=25 / scenecut=40 / intra_refresh=0 / rc=2pass / mbtree=0 / bitrate=1080 / ratetol=1.0 / qcomp=0.60 / qpmin=0 / qpmax=69 / qpstep=4 / cplxblur=20.0 / qblur=0.5 / ip_ratio=1.40 / pb_ratio=1.30 / aq=1:0.70Encoded date : UTC 2017-07-02 09:52:09Tagged date : UTC 2017-07-02 12:09:56Color range : LimitedColor primaries : BT.601 PALTransfer characteristics : BT.470 System B, BT.470 System GMatrix coefficients : BT.601

AudioID : 2Format : AACFormat/Info : Advanced Audio CodecFormat profile : LCCodec ID : 40Duration : 1 h 3 minBit rate mode : VariableBit rate : 128 kb/sMaximum bit rate : 134 kb/sChannel(s) : 2 channelsChannel positions : Front: L RSampling rate : 48.0 kHzFrame rate : 46.875 FPS (1024 spf)Compression mode : LossyStream size : 58.2 MiB (11%)Encoded date : UTC 2017-07-02 12:09:54Tagged date : UTC 2017-07-02 12:09:56
</div>
</div>
<div class="sp-wrap">
<div class="sp-head folded">Logx264</div>
<div class="sp-body">avs [info]: 468x360p 1:1 @ 25/1 fps (cfr)
x264 [info]: using SAR=1/1
x264 [info]: using cpu capabilities: MMX2 SSE2Fast SSSE3 SSE4.2 AVX FMA3 AVX2 LZCNT BMI2
x264 [info]: profile High, level 4.1

x264 [info]: frame I:692 Avg QP:21.95 size: 29170
x264 [info]: frame P:22640 Avg QP:25.30 size: 10959
x264 [info]: frame B:80008 Avg QP:27.64 size: 3621
x264 [info]: consecutive B-frames: 1.7% 2.3% 6.4% 27.8% 16.2% 39.4% 3.8% 1.2% 0.9% 0.2%
x264 [info]: mb I I16..4: 2.0% 72.3% 25.6%
x264 [info]: mb P I16..4: 0.2% 8.9% 3.2% P16..4: 32.1% 36.4% 15.6% 2.8% 0.3% skip: 0.5%
x264 [info]: mb B I16..4: 0.0% 0.9% 0.6% B16..8: 38.6% 24.0% 4.3% direct: 6.2% skip:25.4% L0:38.5% L1:42.2% BI:19.3%
x264 [info]: 8x8 transform intra:68.9% inter:55.2%
x264 [info]: direct mvs spatial:97.3% temporal:2.7%
x264 [info]: coded y,uvDC,uvAC intra: 90.6% 68.7% 22.1% inter: 33.0% 13.8% 1.2%
x264 [info]: i16 v,h,dc,p: 30% 38% 2% 29%
x264 [info]: i8 v,h,dc,ddl,ddr,vr,hd,vl,hu: 11% 6% 5% 11% 15% 15% 13% 13% 11%
x264 [info]: i4 v,h,dc,ddl,ddr,vr,hd,vl,hu: 17% 29% 3% 6% 10% 10% 9% 8% 8%
x264 [info]: i8c dc,h,v,p: 31% 28% 21% 20%
x264 [info]: Weighted P-Frames: Y:34.8% UV:10.4%
x264 [info]: ref P L0: 43.5% 14.9% 16.3% 7.4% 5.4% 4.1% 3.5% 2.1% 2.1% 0.8% 0.0%
x264 [info]: ref B L0: 80.8% 8.8% 4.0% 2.2% 1.6% 1.4% 0.8% 0.3%
x264 [info]: ref B L1: 96.7% 3.3%
x264 [info]: kb/s:1079.97

encoded 103340 frames, 24.07 fps, 1079.97 kb/s
GeneralComplete name : D:\Torrents\Pro Krasnyu Shapochky.(2 serii).1977.DVDRip.x264.640x\Pro Krasnyu Shapochky.(2 seriya).1977.DVDRip.x264.640x.rip by Frost O.S.mp4Format : MPEG-4Format profile : Base MediaCodec ID : isom (isom)File size : 597 MiBDuration : 1 h 8 minOverall bit rate mode : VariableOverall bit rate : 1 212 kb/sEncoded date : UTC 2017-07-02 12:11:10Tagged date : UTC 2017-07-02 12:11:10Writing application : My MP4Box GUI 0.6.0.6

VideoID : 1Format : AVCFormat/Info : Advanced Video CodecFormat profile : High@L4.1Format settings, CABAC : YesFormat settings, ReFrames : 9 framesCodec ID : avc1Codec ID/Info : Advanced Video CodingDuration : 1 h 8 minBit rate : 1 080 kb/sMaximum bit rate : 3 063 kb/sWidth : 468 pixelsHeight : 360 pixelsDisplay aspect ratio : 4:3Frame rate mode : ConstantFrame rate : 25.000 FPSColor space : YUVChroma subsampling : 4:2:0Bit depth : 8 bitsScan type : ProgressiveBits/(Pixel*Frame) : 0.256Stream size : 532 MiB (89%)Title : Pro Krasnyu Shapochky.(2 seriya).1977.DVDRip.x264.640x.rip by Frost O.S.mp4Writing library : x264 core 148 r2744 b97ae06Encoding settings : cabac=1 / ref=9 / deblock=1:-1:-1 / analyse=0x3:0x133 / me=umh / subme=11 / psy=1 / psy_rd=0.90:0.00 / mixed_ref=1 / me_range=48 / chroma_me=1 / trellis=2 / 8x8dct=1 / cqm=0 / deadzone=21,11 / fast_pskip=0 / chroma_qp_offset=-2 / threads=6 / lookahead_threads=1 / sliced_threads=0 / nr=0 / decimate=0 / interlaced=0 / bluray_compat=0 / constrained_intra=0 / bframes=9 / b_pyramid=2 / b_adapt=2 / b_bias=0 / direct=3 / weightb=1 / open_gop=0 / weightp=2 / keyint=250 / keyint_min=25 / scenecut=40 / intra_refresh=0 / rc=2pass / mbtree=0 / bitrate=1080 / ratetol=1.0 / qcomp=0.65 / qpmin=0 / qpmax=69 / qpstep=4 / cplxblur=20.0 / qblur=0.5 / ip_ratio=1.40 / pb_ratio=1.30 / aq=1:0.80Encoded date : UTC 2017-07-02 11:34:04Tagged date : UTC 2017-07-02 12:11:39Color range : LimitedColor primaries : BT.601 PALTransfer characteristics : BT.470 System B, BT.470 System GMatrix coefficients : BT.601

AudioID : 2Format : AACFormat/Info : Advanced Audio CodecFormat profile : LCCodec ID : 40Duration : 1 h 8 minBit rate mode : VariableBit rate : 128 kb/sMaximum bit rate : 135 kb/sChannel(s) : 2 channelsChannel positions : Front: L RSampling rate : 48.0 kHzFrame rate : 46.875 FPS (1024 spf)Compression mode : LossyStream size : 63.1 MiB (11%)Encoded date : UTC 2017-07-02 12:11:32Tagged date : UTC 2017-07-02 12:11:39
</div>
</div>

Трекер:  [ 02-Июл-2017 15:42 ]

  

Скачать .torrent

Размер .torrent файла 12 KB


Размер: 1.12 GB
Хэш (hash) релиза: 1eda59d367f82c948c73597d10dcad61325e1e30

Торренты, похожие на [VIDEO] Про Красную Шапочку скачать торрент

Форум Название Автор Размер S L Добавлен
Видео (Фильмы/Клипы) ·· [VIDEO] Про Красную Шапочку (Леонид Нечаев) [1977, сказка, мюзикл, DVDRip] [3GP, 320x] Galfimbul 427717621408 MB 0 0 1417543646

21:07

2-Дек-14

Еще никто не оставлял запись к записи скачать торрент [VIDEO] Про Красную Шапочку . Будь первым!

!Обратная связь