Скачать через торрент Юность и пулемет Aoharu x Kikanjuu бесплатно Аниме Все серии на русском torrent

Если у вас наблюдаются проблемы со скриншотами, переходом по ссылками, скачиванием торрентов - проблемы в блокировщике рекламы AdBlock. #хорошегоДня!


Статистика раздачи
Размер:  10.4 GB   |    Зарегистрирован:  5 месяцев 12 дней   |    .torrent скачан:  44 раза   |   
Раздают:  1  
   
Загрузка...
 
Автор Сообщение

Galfimbul

avatar Galfimbul


Год выпуска: 2015
Страна: Япония
Жанр: комедия
Продолжительность: ТВ, 12 эп. по 24 мин. + 1 спешл по 24 мин.
Выпуск: c 03.07.2015 по 18.09.2015Перевод:

русские субтитры от YakuSub Studio (полные/вспомогательные)
перевод: Nika_Elrik, редактура: Nagi, Red-blue_heart

Режиссер: Накано Хидэаки
Студия: Brains BaseОписание:
Хотару Татибана любит спорт и справедливость, не терпит насмешек над близкими, за что может кинуться в драку с кем угодно. Кстати, Хотару – девушка, да еще президент Совета своей старшей школы. Другое дело, что со стороны угадать невозможно – коротко стриженую блондинку за «своего парня» принял даже сосед по дому Масамунэ Мацуока, а уж он-то опытный хост и женщин должен знать как никто. Но нет, впечатленный талантами нового знакомого, Масамунэ пригласил его (ее!) в свою страйк-команду – готовиться к турниру по выживанию!

Постепенно Хотару втянулась в страйкбольные бои и выяснила, что порывистый Мацуока вместе с другом и напарником, мангакой Тору Юкимурой, не просто борются за призы, а жаждут взять реванш в битве с чемпионами – командой из двух врачей и медсестры. Кто же победит – хитроумные медики или непредсказуемые люди искусства? И что будет с Хотару, когда выяснится, что она, хм… слегка разбавила дружный мужской коллектив?!
© Hollow

Название сериала дословно значит «Юность и пулемет». Пикантность ему придает то, что авторы используют кунное чтение слова seishun, «юность», при этом первый иероглиф в aoharu значит «голубой», а второй знак кроме общепринятого значения «весна» японцы понимают и как «секс, эротика».Информационные ссылки: AniDB || World Art || MALКачество: BDRip
Энкод: Winter - RG Pantheon
Тип видео: без хардсаба, без линковки
Формат: mkv
Видео: x264 (Hi10p), 1280x720, ~4100 Kbps, 23.976 fps
Аудио JAP: Vorbis, 48000Hz, ~256 Kbps, 2ch
Аудио RUS 1: AC3, 48000Hz, ~192Kbps, 2ch (внешними файлами)
двухголосая (м/ж) от Sad_kit & Milirina (Anything-group)
01. Let`s Start This Deathless Death Match
02. Didn`t I Tell You I Don`t Need Friends?
03. It`ll Become Your Greatest Partner
04. He`s Not Cut Out for That Tournament
05. I Don`t Want to Leave the Team!
06. The Storm Is Coming
07. We`ll Have to Crush That Hope
08. What Controls Your Mind Now
09. That`s What Makes Me Cool!
10. I Want to Fight with These People
11. Let`s Do Something Fun
12. I Won`t Yield!
S1. This Is a Battlefield for Beasts!
...5069933
- BDRip
Общее
Уникальный идентификатор : 220441134185995277481600495288196801534 (0xA5D76B0A972FBE4B9C7FEC23C74823FE)
Полное имя : A:\Anime\720p\Aoharu x Kikanjuu [BD] [720p]\[W] Aoharu x Kikanjuu 01 [BDrip 1280x720 x264 Vorbis].mkv
Формат : Matroska
Версия формата : Version 2
Размер файла : 769 Мбайт
Продолжительность : 24 м.
Режим общего битрейта : Переменный
Общий поток : 4446 Кбит/сек
Дата кодирования : UTC 2017-05-17 20:19:04
Программа кодирования : mkvmerge v2.9.8 ('C'est le bon') built on Aug 13 2009 12:49:06
Библиотека кодирования : libebml v0.7.7 + libmatroska v0.8.1

Видео
Идентификатор : 1
Формат : AVC
Формат/Информация : Advanced Video Codec
Профиль формата : High 10@L4.1
Параметр CABAC формата : Да
Параметр ReFrames формата : 9 кадров
Идентификатор кодека : V_MPEG4/ISO/AVC
Продолжительность : 24 м.
Битрейт : 4101 Кбит/сек
Ширина : 1280 пикселей
Высота : 720 пикселей
Соотношение сторон : 16:9
Режим частоты кадров : Постоянный
Частота кадров : 23,976 кадра/сек
Цветовое пространство : YUV
Субдискретизация насыщенности : 4:2:0
Битовая глубина : 10 бит
Тип развёртки : Прогрессивная
Бит/(Пиксели*Кадры) : 0.186
Размер потока : 710 Мбайт (92%)
Библиотека кодирования : x264 core 148 r2694 3b70645
Настройки программы : cabac=1 / ref=9 / deblock=1:-2:-2 / analyse=0x3:0x133 / me=umh / subme=9 / psy=1 / psy_rd=0.90:0.00 / mixed_ref=1 / me_range=24 / chroma_me=1 / trellis=2 / 8x8dct=1 / cqm=0 / deadzone=21,11 / fast_pskip=1 / chroma_qp_offset=-2 / threads=12 / lookahead_threads=2 / sliced_threads=0 / nr=0 / decimate=0 / interlaced=0 / bluray_compat=0 / constrained_intra=0 / bframes=8 / b_pyramid=2 / b_adapt=2 / b_bias=0 / direct=1 / weightb=1 / open_gop=0 / weightp=2 / keyint=250 / keyint_min=23 / scenecut=40 / intra_refresh=0 / rc=crf / mbtree=0 / crf=16.0 / qcomp=0.70 / qpmin=9 / qpmax=40 / qpstep=4 / ip_ratio=1.40 / pb_ratio=1.30 / aq=1:0.90
Default : Нет
Forced : Нет

Аудио
Идентификатор : 2
Формат : Vorbis
Параметр Floor формата : 1
Идентификатор кодека : A_VORBIS
Продолжительность : 24 м.
Вид битрейта : Переменный
Битрейт : 256 Кбит/сек
Каналы : 2 канала
Частота : 48,0 КГц
Метод сжатия : С потерями
Размер потока : 44,3 Мбайт (6%)
Библиотека кодирования : libVorbis (??] (20150105 (??])
Язык : Japanese
Default : Да
Forced : Нет
Выбор видео, перевода, озвучки, а также типа сборки материала осуществляется релизером и не подлежит обсуждению. Если вы считаете, что раздаваемый материал противоречит правилам раздела "Аниме" rutracker.org, сообщите об этом одному из модераторов раздела.

В случае появления нового материала или же лучшего по качеству материала релизер оставляет за собой право обновить раздачу. В этом случае вам необходимо ознакомиться с изменениями (добавлениями) и перекачать торрент.

Данный релиз предназначен для просмотра на ПК. Воспроизведение на иных проигрывателях не гарантируется. Для просмотра рекомендуется Media Player Classic с установленным пакетом кодеков K-Lite.

Данный релиз содержит 10-битное видео (Hi10p). Для корректного воспроизведения обязательно используйте кодеки, поддерживающие 10-битное видео.
Обсудить частные случаи проблем с воспроизведением и получить дополнительную информацию можно здесь.

Данный релиз предназначен для просмотра с внешними субтитрами и внешними звуковыми дорожками.

Для просмотра с внешней звуковой дорожкой нужно:
перекинуть файлы .mka из папки "RUS Sound [<автор(ы) озвучки>]" в одну папку с видео и переключить звуковую дорожку в плеере при просмотре. Как это сделать в разных плеерах подробно описано здесь.
Для просмотра с субтитрами нужно:
перекинуть файлы .ass из папки "RUS Subtitles [<автор(ы) перевода>]" в одну папку с видео - плеер подгрузит их автоматически при открытии видео.

Если у вас возникли проблемы с просмотром, не связанные с описанным выше, сообщите о них автору раздачи посредством сообщения в теме или ЛС Aglenn.


Трекер:  [ 02-Июл-2017 23:01 ]

  

Скачать .torrent

Размер .torrent файла 58 KB


Размер: 10.4 GB
Хэш (hash) релиза: 8d896fe778f5f4bd81aef95214488af9d5adca03
Подписка на обновления:

Торренты, похожие на Юность и пулемет Aoharu x Kikanjuu скачать торрент

Форум Название Автор Размер S L Добавлен
Аниме | HD Rips ·· Юность и пулемет / Aoharu x Kikanjuu / Aoharu x Machinegun (Накано Хидэаки) [TV+Special] [12+1 из 12+1] [без хардсаба] [RUS(ext), JAP+SUB] [2015, комедия, BDRemux] [1080p] Galfimbul 9343518317987.02 GB 0 0 1512826289

16:31

9-Дек-17

Еще никто не оставлял запись к записи скачать торрент Юность и пулемет Aoharu x Kikanjuu . Будь первым!

!Обратная связь