Скачать через торрент Чистюля Аояма-кун Keppeki Danshi! Aoyama-kun бесплатно Аниме Все серии на русском torrent

Если у вас наблюдаются проблемы со скриншотами, переходом по ссылками, скачиванием торрентов - проблемы в блокировщике рекламы AdBlock. #хорошегоДня!


Статистика раздачи
Размер:  380 MB   |    Зарегистрирован:  5 месяцев 10 дней   |    .torrent скачан:  28 раз   |   
Раздают:  1  
   
Загрузка...
 
Автор Сообщение

Galfimbul

avatar Galfimbul


Чистюля Аояма-кун
Keppeki Danshi! Aoyama-kun
Cleanliness Boy! Aoyama-kun
潔癖男子!青山くん

Страна: Япония
Год выпуска: 2017 г.
Жанр: комедия, спорт, сёнэн
Тип: TV
Продолжительность: 12 эп. по 24 мин.
Режиссер: Итикава Кадзуя
Студия: Studio HibariРусские субтитры от AniPlay
Перевод и редактура: lisiyaka & Kora_NekoРусские субтитры от SovetRomantica
Перевод и редактура: AkiraОписание: Что будет, если совместить несовместимое? Например, возьмём спортивную игру на большом поле с мячом, где легко упасть и испачкаться, порой приходится трогать грязный мяч, не говорим уже о том, что, играя в неё, невозможно не вспотеть. А теперь возьмём патологического чистюлю, который ненавидит грязь и микробы и даже слышать не хочет о них. Невозможно, скажете вы. Как бы не так, скажем мы и представим вам самого чистого футболиста в мире! Пасы головой, прикосновения товарищей по команде и грязь на теле не для него.

Знакомьтесь, это Аояма! Он учится в первом классе старшей школы Фуджими и состоит в её футбольном клубе. Аояма - очень талантливый игрок, но он ни за что на свете не согласится испачкаться. Несмотря на свою занятную странность, он всё равно умудряется быть лучшим из лучших. Причудливый чистюля-футболист играет в юношеской сборной Японии! Вооружившись перчатками и пылесборником, отважный Аояма объявляет бой грязи и команде соперников!Информационные ссылки: AniDB | MyAnimeList | World ArtКачество: HDTVRip
Тип релиза: Без хардсаба
Формат видео: MP4
Наличие линковки: Нет
Релиз/Автор рипа: Ohys-Raws
Видео: x264, 8 bit, 1280x720, ~1985 Kbps, 23.976 fps
Аудио (int): AAC, 48000 Hz, ~213 Kbps, 2 ch
Субтитры #1-2 (ext): Rus, ASS
<div class="sp-wrap">
<div class="sp-head folded">MediaInfo</div>
<div class="sp-body">

Формат : MPEG-4Профиль формата : Base MediaИдентификатор кодека : isom (isom/avc1)Размер файла : 378 МбайтПродолжительность : 24 м. 0 с.Режим общего битрейта : ПеременныйОбщий поток : 2202 Кбит/секДата кодирования : UTC 2017-07-02 16:45:09Дата пометки : UTC 2017-07-02 16:45:09

ВидеоИдентификатор : 1Формат : AVCФормат/Информация : Advanced Video CodecПрофиль формата : Main@L4.1Параметр CABAC формата : ДаПараметр ReFrames формата : 4 кадраИдентификатор кодека : avc1Идентификатор кодека/Информация : Advanced Video CodingПродолжительность : 23 м. 59 с.Битрейт : 1985 Кбит/секМаксимальный битрейт : 11,2 Мбит/секШирина : 1280 пикселейВысота : 720 пикселейСоотношение сторон : 16:9Режим частоты кадров : ПостоянныйЧастота кадров : 23,976 (24000/1001) кадра/секЦветовое пространство : YUVСубдискретизация насыщенности : 4:2:0Битовая глубина : 8 битТип развёртки : ПрогрессивнаяБит/(Пиксели*Кадры) : 0.090Размер потока : 341 Мбайт (90%)Библиотека кодирования : x264 core 152 r2851+58 429492e t_mod_Custom [8-bit@all X86_64]Настройки программы : cabac=1 / ref=3 / deblock=1:0:0 / analyse=0x1:0x111 / me=hex / subme=7 / psy=1 / fade_compensate=0.00 / psy_rd=1.00:0.00 / mixed_ref=1 / me_range=16 / chroma_me=1 / trellis=1 / 8x8dct=0 / cqm=0 / deadzone=21,11 / fast_pskip=1 / chroma_qp_offset=-2 / threads=12 / lookahead_threads=2 / sliced_threads=0 / nr=0 / decimate=1 / interlaced=0 / bluray_compat=0 / constrained_intra=0 / fgo=0 / bframes=3 / b_pyramid=2 / b_adapt=1 / b_bias=0 / direct=1 / weightb=1 / open_gop=0 / weightp=2 / keyint=240 / keyint_min=1 / scenecut=40 / intra_refresh=0 / rc_lookahead=40 / rc=crf / mbtree=1 / crf=20.0000 / qcomp=0.60 / qpmin=0:0:0 / qpmax=69:69:69 / qpstep=4 / ip_ratio=1.40 / aq=1:1.50 / aq-sensitivity=10.00 / aq-factor=1.00:1.00:1.00 / aq2=0 / aq3=0Дата кодирования : UTC 2017-07-02 16:45:09Дата пометки : UTC 2017-07-02 16:45:12Цветовой диапазон : LimitedОсновные цвета : BT.709Характеристики трансфера : BT.709Коэффициенты матрицы : BT.709

АудиоИдентификатор : 2Формат : AACФормат/Информация : Advanced Audio CodecПрофиль формата : LCИдентификатор кодека : 40Продолжительность : 24 м. 0 с.Вид битрейта : ПеременныйБитрейт : 213 Кбит/секМаксимальный битрейт : 255 Кбит/секКаналы : 2 каналаРасположение каналов : Front: L RЧастота : 48,0 КГцЧастота кадров : 46,875 кадров/сек (1024 spf)Метод сжатия : С потерямиРазмер потока : 36,6 Мбайт (10%)Язык : JapaneseДата кодирования : UTC 2017-07-02 16:33:54Дата пометки : UTC 2017-07-02 16:45:12
</div>
</div>
01.


Трекер:  [ 03-Июл-2017 03:30 ]

  

Скачать .torrent

Размер .torrent файла 2 KB


Размер: 380 MB
Хэш (hash) релиза: 85c3ee237885f34dc4924c85d031abc6f0795b9f
Подписка на обновления:

Еще никто не оставлял запись к записи скачать торрент Чистюля Аояма-кун Keppeki Danshi! Aoyama-kun . Будь первым!

!Обратная связь