Скачать через торрент музыку Прирождённые убийцы Natural Born Killers бесплатно без регистрации torrent

Если у вас наблюдаются проблемы со скриншотами, переходом по ссылками, скачиванием торрентов - проблемы в блокировщике рекламы AdBlock. #хорошегоДня!


Статистика раздачи
Размер:  505 MB   |    Зарегистрирован:  5 месяцев 10 дней   |    .torrent скачан:  31 раз   |   
Раздают:  1  
   
Загрузка...
 
Автор Сообщение

Galfimbul

avatar Galfimbul


NATURAL BORN KILLERS
Жанр: Soundtrack
Год выпуска диска: 1994
Страна-производитель диска: Germany
Издатель (лейбл): Interscope
Номер по каталогу: 6544-92460-2
Аудиокодек: FLAC (*.flac)
Тип рипа: tracks+.cue
Битрейт аудио: lossless
Продолжительность: 75:37
Источник: собственный рип
Наличие сканов в содержимом раздачи: 600 dpi .jpg01. Leonard Cohen / Waiting For the Miracle [0:03:43.22]
02. L7 / Shitlist [0:02:48.40]
03. Dan Zanes / Moon Over Greene County [0:02:19.23]
04. Patti Smith / Rock 'N' Roll Nigger [0:04:00.02]
05. Cowboy Junkies / Sweet Jane [0:03:23.15]
06. Bob Dylan / You Belong To Me [0:03:09.38]
07. Duane Eddy / The Trembler [0:01:10.72]
08. Nine Inch Nails / Burn [0:05:00.63]
09. Brian Berdan & Robert Downey Jr. / Route 666 [0:00:56.50]
10. Remmy Ongala & Orchestre Super Matimila / Totally Hot [Edit of Kipenda Roho] [0:00:47.15]
11. Patsy Cline / Back In Baby's Arms [0:02:04.22]
12. Peter Gabriel & Nusrat Fateh Ali Khan / Taboo [0:04:22.58]
13. Jane's Addiction; Diamanda Galás / Sex Is Violent [Excerpts from Ted Just Admit It & I Put A Spell On You] [0:04:58.17]
14. A.O.S. / History (Repeats Itself) [0:02:21.73]
15. Nine Inch Nails / Something I Can Never Have [0:04:04.42]
16. Russel Means / I Will Take You Home [0:02:18.48]
17. Hollywood Persuaders / Drums A Go-Go [0:01:10.57]
18. Barry Adamson / Hungry Ants [Excerpts from Checkpoint Charlie & Violation Of Expectation] [0:03:12.13]
19. Dr. Dre / The Day The Niggaz Took Over [0:04:33.12]
20. Juliette Lewis / Born Bad [0:00:43.03]
21. Sergio Cervetti / Fall Of The Rebel Angels [0:01:21.27]
22. Lard / Forkboy [0:03:54.20]
23. Budapest Philharmonic Orchestra / Batonga in Batongaville [Excerpts from A Night On Bare Mountain (Modeste Mussorgsky)] [0:01:04.23]
24. Nine Inch Nails / A Warm Place [0:02:59.02]
25. Nusrat Fateh Ali Khan & Party; Diamanda Galás / Allah, Mohammed, Char, Yaar [Excerpts from Allah, Mohammed, Char, Yaar & Judgement Day] [0:01:08.08]
26. Leonard Cohen / The Future [0:03:49.20]
27. Tha Dogg Pound / What Would U Do? [0:04:12.30]
Exact Audio Copy V1.1 from 23. June 2015

EAC extraction logfile from 4. July 2017, 14:50

Natural Born Killers / Natural Born Killers (6544-92460-2)

Used drive : HL-DT-STDVDRAM GE20NU11 Adapter: 1 ID: 0

Read mode : SecureUtilize accurate stream : YesDefeat audio cache : YesMake use of C2 pointers : No

Read offset correction : 667Overread into Lead-In and Lead-Out : NoFill up missing offset samples with silence : YesDelete leading and trailing silent blocks : NoNull samples used in CRC calculations : YesUsed interface : Native Win32 interface for Win NT & 2000Gap handling : Appended to previous track

Used output format : User Defined EncoderSelected bitrate : 896 kBit/sQuality : HighAdd ID3 tag : NoCommand line compressor : C:\Program Files\Exact Audio Copy\Flac\flac.exeAdditional command line options : -V -8 -T "Genre=%genre%" -T "Artist=%artist%" -T "Title=%title%" -T "Album=%albumtitle%" -T "Date=%year%" -T "Tracknumber=%tracknr%" -T "Comment=%comment%" %source%

TOC of the extracted CD

Track | Start | Length | Start sector | End sector --------------------------------------------------------- 1 | 0:00.00 | 3:43.22 | 0 | 16746 2 | 3:43.22 | 2:48.40 | 16747 | 29386 3 | 6:31.62 | 2:19.23 | 29387 | 39834 4 | 8:51.10 | 4:00.02 | 39835 | 57836 5 | 12:51.12 | 3:23.15 | 57837 | 73076 6 | 16:14.27 | 3:09.38 | 73077 | 87289 7 | 19:23.65 | 1:10.72 | 87290 | 92611 8 | 20:34.62 | 5:00.63 | 92612 | 115174 9 | 25:35.50 | 0:56.50 | 115175 | 119424 10 | 26:32.25 | 0:47.15 | 119425 | 122964 11 | 27:19.40 | 2:04.22 | 122965 | 132286 12 | 29:23.62 | 4:22.58 | 132287 | 151994 13 | 33:46.45 | 4:58.17 | 151995 | 174361 14 | 38:44.62 | 2:21.73 | 174362 | 185009 15 | 41:06.60 | 4:04.42 | 185010 | 203351 16 | 45:11.27 | 2:18.48 | 203352 | 213749 17 | 47:30.00 | 1:10.57 | 213750 | 219056 18 | 48:40.57 | 3:12.13 | 219057 | 233469 19 | 51:52.70 | 4:33.12 | 233470 | 253956 20 | 56:26.07 | 0:43.03 | 253957 | 257184 21 | 57:09.10 | 1:21.27 | 257185 | 263286 22 | 58:30.37 | 3:54.20 | 263287 | 280856 23 | 62:24.57 | 1:04.23 | 280857 | 285679 24 | 63:29.05 | 2:59.02 | 285680 | 299106 25 | 66:28.07 | 1:08.08 | 299107 | 304214 26 | 67:36.15 | 3:49.20 | 304215 | 321409 27 | 71:25.35 | 4:12.30 | 321410 | 340339

Track 1

Filename Z:\OdW\Various - 1994 - Natural Born Killers [OST] (6544-92460-2)\01. Leonard Cohen – Waiting For the Miracle.wav

Pre-gap length 0:00:02.00

Peak level 96.6 % Extraction speed 4.2 X Track quality 100.0 % Test CRC CBEA5303 Copy CRC CBEA5303 Accurately ripped (confidence 61) [6F187771] (AR v2) Copy OK

Track 2

Filename Z:\OdW\Various - 1994 - Natural Born Killers [OST] (6544-92460-2)\02. L7 – Shitlist.wav

Peak level 98.8 % Extraction speed 4.2 X Track quality 100.0 % Test CRC A87BABFC Copy CRC A87BABFC Accurately ripped (confidence 64) [1B83111E] (AR v2) Copy OK

Track 3

Filename Z:\OdW\Various - 1994 - Natural Born Killers [OST] (6544-92460-2)\03. Dan Zanes – Moon Over Greene County.wav

Peak level 96.6 % Extraction speed 4.3 X Track quality 100.0 % Test CRC A0216D43 Copy CRC A0216D43 Accurately ripped (confidence 64) [0A884F33] (AR v2) Copy OK

Track 4

Filename Z:\OdW\Various - 1994 - Natural Born Killers [OST] (6544-92460-2)\04. Patti Smith – Rock 'N' Roll Nigger.wav

Pre-gap length 0:00:00.48

Peak level 96.6 % Extraction speed 4.2 X Track quality 99.9 % Test CRC 9751DDE5 Copy CRC 9751DDE5 Accurately ripped (confidence 63) [93563CE0] (AR v2) Copy OK

Track 5

Filename Z:\OdW\Various - 1994 - Natural Born Killers [OST] (6544-92460-2)\05. Cowboy Junkies – Sweet Jane.wav

Pre-gap length 0:00:00.17

Peak level 96.6 % Extraction speed 4.2 X Track quality 99.9 % Test CRC 74B5904A Copy CRC 74B5904A Accurately ripped (confidence 63) [BA527214] (AR v2) Copy OK

Track 6

Filename Z:\OdW\Various - 1994 - Natural Born Killers [OST] (6544-92460-2)\06. Bob Dylan – You Belong To Me.wav

Pre-gap length 0:00:00.15

Peak level 96.6 % Extraction speed 5.3 X Track quality 100.0 % Test CRC FB64A4D1 Copy CRC FB64A4D1 Accurately ripped (confidence 64) [B38F04A9] (AR v2) Copy OK

Track 7

Filename Z:\OdW\Various - 1994 - Natural Born Killers [OST] (6544-92460-2)\07. Duane Eddy – The Trembler.wav

Peak level 97.3 % Extraction speed 4.0 X Track quality 100.0 % Test CRC 4E461BEC Copy CRC 4E461BEC Accurately ripped (confidence 64) [7CD1AF47] (AR v2) Copy OK

Track 8

Filename Z:\OdW\Various - 1994 - Natural Born Killers [OST] (6544-92460-2)\08. Nine Inch Nails – Burn.wav

Peak level 96.6 % Extraction speed 6.1 X Track quality 100.0 % Test CRC 61D821DD Copy CRC 61D821DD Accurately ripped (confidence 63) [5FB0567B] (AR v2) Copy OK

Track 9

Filename Z:\OdW\Various - 1994 - Natural Born Killers [OST] (6544-92460-2)\09. Brian Berdan & Robert Downey Jr. – Route 666.wav

Pre-gap length 0:00:01.28

Peak level 91.1 % Extraction speed 3.9 X Track quality 100.0 % Test CRC 53E145BB Copy CRC 53E145BB Accurately ripped (confidence 64) [6B80F660] (AR v2) Copy OK

Track 10

Filename Z:\OdW\Various - 1994 - Natural Born Killers [OST] (6544-92460-2)\10. Remmy Ongala & Orchestre Super Matimila – Totally Hot [Edit of Kipenda Roho].wav

Peak level 96.6 % Extraction speed 3.9 X Track quality 100.0 % Test CRC 8D18B886 Copy CRC 8D18B886 Accurately ripped (confidence 63) [2293A252] (AR v2) Copy OK

Track 11

Filename Z:\OdW\Various - 1994 - Natural Born Killers [OST] (6544-92460-2)\11. Patsy Cline – Back In Baby's Arms.wav

Peak level 96.6 % Extraction speed 5.5 X Track quality 100.0 % Test CRC AA3ADB9D Copy CRC AA3ADB9D Accurately ripped (confidence 64) [D71A3072] (AR v2) Copy OK

Track 12

Filename Z:\OdW\Various - 1994 - Natural Born Killers [OST] (6544-92460-2)\12. Peter Gabriel & Nusrat Fateh Ali Khan – Taboo.wav

Peak level 96.6 % Extraction speed 6.5 X Track quality 100.0 % Test CRC 5C5AC05D Copy CRC 5C5AC05D Accurately ripped (confidence 64) [65EB5EF0] (AR v2) Copy OK

Track 13

Filename Z:\OdW\Various - 1994 - Natural Born Killers [OST] (6544-92460-2)\13. Jane's Addiction; Diamanda Galas – Sex Is Violent [Excerpts from Ted Just Admit It & I Put A Spell On You].wav

Peak level 96.6 % Extraction speed 6.9 X Track quality 100.0 % Test CRC D6F93370 Copy CRC D6F93370 Accurately ripped (confidence 63) [9386B125] (AR v2) Copy OK

Track 14

Filename Z:\OdW\Various - 1994 - Natural Born Killers [OST] (6544-92460-2)\14. A.O.S. – History (Repeats Itself).wav

Peak level 96.6 % Extraction speed 6.0 X Track quality 100.0 % Test CRC 0F26D931 Copy CRC 0F26D931 Accurately ripped (confidence 61) [24A0A41A] (AR v2) Copy OK

Track 15

Filename Z:\OdW\Various - 1994 - Natural Born Killers [OST] (6544-92460-2)\15. Nine Inch Nails – Something I Can Never Have.wav

Peak level 96.6 % Extraction speed 6.8 X Track quality 100.0 % Test CRC 2B92BB18 Copy CRC 2B92BB18 Accurately ripped (confidence 64) [94871061] (AR v2) Copy OK

Track 16

Filename Z:\OdW\Various - 1994 - Natural Born Killers [OST] (6544-92460-2)\16. Russel Means – I Will Take You Home.wav

Peak level 96.6 % Extraction speed 6.2 X Track quality 100.0 % Test CRC 662361D1 Copy CRC 662361D1 Accurately ripped (confidence 63) [572BFE4E] (AR v2) Copy OK

Track 17

Filename Z:\OdW\Various - 1994 - Natural Born Killers [OST] (6544-92460-2)\17. Hollywood Persuaders – Drums A Go-Go.wav

Peak level 96.6 % Extraction speed 5.4 X Track quality 100.0 % Test CRC 52BEE258 Copy CRC 52BEE258 Accurately ripped (confidence 63) [97A01CBA] (AR v2) Copy OK

Track 18

Filename Z:\OdW\Various - 1994 - Natural Born Killers [OST] (6544-92460-2)\18. Barry Adamson – Hungry Ants [Excerpts from Checkpoint Charlie & Violation Of Expectation].wav

Peak level 96.6 % Extraction speed 6.9 X Track quality 100.0 % Test CRC 51C0946B Copy CRC 51C0946B Accurately ripped (confidence 62) [00F305E1] (AR v2) Copy OK

Track 19

Filename Z:\OdW\Various - 1994 - Natural Born Killers [OST] (6544-92460-2)\19. Dr. Dre – The Day The Niggaz Took Over.wav

Peak level 98.8 % Extraction speed 7.4 X Track quality 100.0 % Test CRC B356A09E Copy CRC B356A09E Accurately ripped (confidence 62) [2AD26EE0] (AR v2) Copy OK

Track 20

Filename Z:\OdW\Various - 1994 - Natural Born Killers [OST] (6544-92460-2)\20. Juliette Lewis – Born Bad.wav

Peak level 96.6 % Extraction speed 4.2 X Track quality 100.0 % Test CRC 48178D10 Copy CRC 48178D10 Accurately ripped (confidence 63) [38E454E7] (AR v2) Copy OK

Track 21

Filename Z:\OdW\Various - 1994 - Natural Born Killers [OST] (6544-92460-2)\21. Sergio Cervetti – Fall Of The Rebel Angels.wav

Peak level 96.6 % Extraction speed 5.9 X Track quality 100.0 % Test CRC AB3FF9C5 Copy CRC AB3FF9C5 Accurately ripped (confidence 63) [DD07F434] (AR v2) Copy OK

Track 22

Filename Z:\OdW\Various - 1994 - Natural Born Killers [OST] (6544-92460-2)\22. Lard – Forkboy.wav

Peak level 96.6 % Extraction speed 7.5 X Track quality 100.0 % Test CRC 64BE8061 Copy CRC 64BE8061 Accurately ripped (confidence 63) [61E29DEF] (AR v2) Copy OK

Track 23

Filename Z:\OdW\Various - 1994 - Natural Born Killers [OST] (6544-92460-2)\23. Budapest Philharmonic Orchestra – Batonga in Batongaville [Excerpts from A Night On Bare Mountain (Modeste Mussorgsky)].wav

Peak level 96.6 % Extraction speed 5.1 X Track quality 100.0 % Test CRC EB03F428 Copy CRC EB03F428 Accurately ripped (confidence 63) [E1B0B1E0] (AR v2) Copy OK

Track 24

Filename Z:\OdW\Various - 1994 - Natural Born Killers [OST] (6544-92460-2)\24. Nine Inch Nails – A Warm Place.wav

Peak level 70.0 % Extraction speed 7.6 X Track quality 100.0 % Test CRC 05F7DB09 Copy CRC 05F7DB09 Accurately ripped (confidence 63) [84E97B5B] (AR v2) Copy OK

Track 25

Filename Z:\OdW\Various - 1994 - Natural Born Killers [OST] (6544-92460-2)\25. Nusrat Fateh Ali Khan & Party; Diamana Galas – Allah, Mohammed, Char, Yaar [Excerpts from Allah, Mohammed, Char, Yaar & Judgement Day].wav

Peak level 96.6 % Extraction speed 5.8 X Track quality 100.0 % Test CRC E7EE53B1 Copy CRC E7EE53B1 Accurately ripped (confidence 64) [B8EC1779] (AR v2) Copy OK

Track 26

Filename Z:\OdW\Various - 1994 - Natural Born Killers [OST] (6544-92460-2)\26. Leonard Cohen – The Future.wav

Pre-gap length 0:00:01.10

Peak level 96.6 % Extraction speed 7.6 X Track quality 100.0 % Test CRC C64B4A66 Copy CRC C64B4A66 Accurately ripped (confidence 62) [B17B563E] (AR v2) Copy OK

Track 27

Filename Z:\OdW\Various - 1994 - Natural Born Killers [OST] (6544-92460-2)\27. Tha Dogg Pound – What Would U Do.wav

Pre-gap length 0:00:02.13

Peak level 96.6 % Extraction speed 8.2 X Track quality 100.0 % Test CRC A23552E7 Copy CRC A23552E7 Accurately ripped (confidence 64) [4ED63F42] (AR v2) Copy OK

All tracks accurately ripped

No errors occurred

End of status report

---- CUETools DB Plugin V2.1.6

[CTDB TOCID: JigL68YvSp7jwiO4E4XoO9DvWcQ-] foundSubmit result: JigL68YvSp7jwiO4E4XoO9DvWcQ- has been confirmed, JigL68YvSp7jwiO4E4XoO9DvWcQ- has been confirmedTrack | CTDB Status 1 | (340/345) Accurately ripped 2 | (340/345) Accurately ripped 3 | (342/345) Accurately ripped 4 | (339/345) Accurately ripped 5 | (339/345) Accurately ripped 6 | (340/345) Accurately ripped 7 | (340/345) Accurately ripped 8 | (342/345) Accurately ripped 9 | (341/345) Accurately ripped 10 | (341/345) Accurately ripped 11 | (341/345) Accurately ripped 12 | (341/345) Accurately ripped 13 | (341/345) Accurately ripped 14 | (341/345) Accurately ripped 15 | (339/345) Accurately ripped 16 | (341/345) Accurately ripped 17 | (341/345) Accurately ripped 18 | (340/345) Accurately ripped 19 | (337/345) Accurately ripped 20 | (341/345) Accurately ripped 21 | (340/345) Accurately ripped 22 | (337/345) Accurately ripped 23 | (339/345) Accurately ripped 24 | (336/345) Accurately ripped 25 | (340/345) Accurately ripped 26 | (335/345) Accurately ripped 27 | (336/345) Accurately ripped

==== Log checksum 56AE5BD0C673A08986E99455CF8CC392E3B9825C80200C782FC058DA0541EB75 ====
REM GENRE SoundtrackREM DATE 1994REM DISCID 9311B91BREM COMMENT "ExactAudioCopy v1.1"PERFORMER "Natural Born Killers"TITLE "Natural Born Killers (6544-92460-2)"FILE "01. Leonard Cohen – Waiting For the Miracle.wav" WAVE TRACK 01 AUDIO TITLE "Waiting For the Miracle" PERFORMER "Leonard Cohen" INDEX 01 00:00:00FILE "02. L7 – Shitlist.wav" WAVE TRACK 02 AUDIO TITLE "Shitlist" PERFORMER "L7" INDEX 01 00:00:00FILE "03. Dan Zanes – Moon Over Greene County.wav" WAVE TRACK 03 AUDIO TITLE "Moon Over Greene County" PERFORMER "Dan Zanes" INDEX 01 00:00:00 TRACK 04 AUDIO TITLE "Rock 'N' Roll Nigger" PERFORMER "Patti Smith" INDEX 00 02:18:50FILE "04. Patti Smith – Rock 'N' Roll Nigger.wav" WAVE INDEX 01 00:00:00 TRACK 05 AUDIO TITLE "Sweet Jane" PERFORMER "Cowboy Junkies" INDEX 00 03:59:60FILE "05. Cowboy Junkies – Sweet Jane.wav" WAVE INDEX 01 00:00:00 TRACK 06 AUDIO TITLE "You Belong To Me" PERFORMER "Bob Dylan" INDEX 00 03:23:00FILE "06. Bob Dylan – You Belong To Me.wav" WAVE INDEX 01 00:00:00FILE "07. Duane Eddy – The Trembler.wav" WAVE TRACK 07 AUDIO TITLE "The Trembler" PERFORMER "Duane Eddy" INDEX 01 00:00:00FILE "08. Nine Inch Nails – Burn.wav" WAVE TRACK 08 AUDIO TITLE "Burn" PERFORMER "Nine Inch Nails" INDEX 01 00:00:00 TRACK 09 AUDIO TITLE "Route 666" PERFORMER "Brian Berdan & Robert Downey Jr." INDEX 00 04:59:35FILE "09. Brian Berdan & Robert Downey Jr. – Route 666.wav" WAVE INDEX 01 00:00:00FILE "10. Remmy Ongala & Orchestre Super Matimila – Totally Hot [Edit of Kipenda Roho].wav" WAVE TRACK 10 AUDIO TITLE "Totally Hot [Edit of Kipenda Roho]" PERFORMER "Remmy Ongala & Orchestre Super Matimila" INDEX 01 00:00:00FILE "11. Patsy Cline – Back In Baby's Arms.wav" WAVE TRACK 11 AUDIO TITLE "Back In Baby's Arms" PERFORMER "Patsy Cline" INDEX 01 00:00:00FILE "12. Peter Gabriel & Nusrat Fateh Ali Khan – Taboo.wav" WAVE TRACK 12 AUDIO TITLE "Taboo" PERFORMER "Peter Gabriel & Nusrat Fateh Ali Khan" INDEX 01 00:00:00FILE "13. Jane's Addiction; Diamanda Galas – Sex Is Violent [Excerpts from Ted Just Admit It & I Put A Spell On You].wav" WAVE TRACK 13 AUDIO TITLE "Sex Is Violent [Excerpts from Ted Just Admit It & I Put A Spell On You]" PERFORMER "Jane's Addiction; Diamanda Galas" INDEX 01 00:00:00FILE "14. A.O.S. – History (Repeats Itself).wav" WAVE TRACK 14 AUDIO TITLE "History (Repeats Itself)" PERFORMER "A.O.S." INDEX 01 00:00:00FILE "15. Nine Inch Nails – Something I Can Never Have.wav" WAVE TRACK 15 AUDIO TITLE "Something I Can Never Have" PERFORMER "Nine Inch Nails" INDEX 01 00:00:00FILE "16. Russel Means – I Will Take You Home.wav" WAVE TRACK 16 AUDIO TITLE "I Will Take You Home" PERFORMER "Russel Means" INDEX 01 00:00:00FILE "17. Hollywood Persuaders – Drums A Go-Go.wav" WAVE TRACK 17 AUDIO TITLE "Drums A Go-Go" PERFORMER "Hollywood Persuaders" INDEX 01 00:00:00FILE "18. Barry Adamson – Hungry Ants [Excerpts from Checkpoint Charlie & Violation Of Expectation].wav" WAVE TRACK 18 AUDIO TITLE "Hungry Ants [Excerpts from Checkpoint Charlie & Violation Of Expectation]" PERFORMER "Barry Adamson" INDEX 01 00:00:00FILE "19. Dr. Dre – The Day The Niggaz Took Over.wav" WAVE TRACK 19 AUDIO TITLE "The Day The Niggaz Took Over" PERFORMER "Dr. Dre" INDEX 01 00:00:00FILE "20. Juliette Lewis – Born Bad.wav" WAVE TRACK 20 AUDIO TITLE "Born Bad" PERFORMER "Juliette Lewis" INDEX 01 00:00:00FILE "21. Sergio Cervetti – Fall Of The Rebel Angels.wav" WAVE TRACK 21 AUDIO TITLE "Fall Of The Rebel Angels" PERFORMER "Sergio Cervetti" INDEX 01 00:00:00FILE "22. Lard – Forkboy.wav" WAVE TRACK 22 AUDIO TITLE "Forkboy" PERFORMER "Lard" INDEX 01 00:00:00FILE "23. Budapest Philharmonic Orchestra – Batonga in Batongaville [Excerpts from A Night On Bare Mountain (Modeste Mussorgsky)].wav" WAVE TRACK 23 AUDIO TITLE "Batonga in Batongaville [Excerpts from A Night On Bare Mountain (Modeste Muss..." PERFORMER "Budapest Philharmonic Orchestra" INDEX 01 00:00:00FILE "24. Nine Inch Nails – A Warm Place.wav" WAVE TRACK 24 AUDIO TITLE "A Warm Place" PERFORMER "Nine Inch Nails" INDEX 01 00:00:00FILE "25. Nusrat Fateh Ali Khan & Party; Diamana Galas – Allah, Mohammed, Char, Yaar [Excerpts from Allah, Mohammed, Char, Yaar & Judgement Day].wav" WAVE TRACK 25 AUDIO TITLE "Allah, Mohammed, Char, Yaar [Excerpts from Allah, Mohammed, Char, Yaar & Jud..." PERFORMER "Nusrat Fateh Ali Khan & Party; Diamana Galas" INDEX 01 00:00:00 TRACK 26 AUDIO TITLE "The Future" PERFORMER "Leonard Cohen" INDEX 00 01:06:73FILE "26. Leonard Cohen – The Future.wav" WAVE INDEX 01 00:00:00 TRACK 27 AUDIO TITLE "What Would U Do?" PERFORMER "Tha Dogg Pound" INDEX 00 03:47:07FILE "27. Tha Dogg Pound – What Would U Do.wav" WAVE INDEX 01 00:00:00
[CUETools log; Date: 04.07.2017 14:52:23; Version: 2.1.5][CTDB TOCID: JigL68YvSp7jwiO4E4XoO9DvWcQ-] found.Track | CTDB Status 1 | (342/347) Accurately ripped 2 | (342/347) Accurately ripped 3 | (344/347) Accurately ripped 4 | (341/347) Accurately ripped 5 | (341/347) Accurately ripped 6 | (342/347) Accurately ripped 7 | (342/347) Accurately ripped 8 | (344/347) Accurately ripped 9 | (343/347) Accurately ripped 10 | (343/347) Accurately ripped 11 | (343/347) Accurately ripped 12 | (343/347) Accurately ripped 13 | (343/347) Accurately ripped 14 | (343/347) Accurately ripped 15 | (341/347) Accurately ripped 16 | (343/347) Accurately ripped 17 | (343/347) Accurately ripped 18 | (342/347) Accurately ripped 19 | (339/347) Accurately ripped 20 | (343/347) Accurately ripped 21 | (342/347) Accurately ripped 22 | (339/347) Accurately ripped 23 | (341/347) Accurately ripped 24 | (338/347) Accurately ripped 25 | (342/347) Accurately ripped 26 | (337/347) Accurately ripped 27 | (338/347) Accurately ripped[AccurateRip ID: 004a5dc7-058db5b1-9311b91b] found.Track [ CRC | V2 ] Status 01 [2fb9a776|6f187771] (055+061/264) Accurately ripped 02 [cbfdad60|1b83111e] (056+064/269) Accurately ripped 03 [db138eb7|0a884f33] (056+064/267) Accurately ripped 04 [4e278321|93563ce0] (056+063/266) Accurately ripped 05 [e595b354|ba527214] (056+063/266) Accurately ripped 06 [9ff7cda0|b38f04a9] (056+064/268) Accurately ripped 07 [0e391ba2|7cd1af47] (056+064/266) Accurately ripped 08 [e8c1b04b|5fb0567b] (057+063/268) Accurately ripped 09 [57c4d818|6b80f660] (056+064/267) Accurately ripped 10 [670c93ee|2293a252] (057+063/267) Accurately ripped 11 [7ac1aa43|d71a3072] (057+064/268) Accurately ripped 12 [625f56d7|65eb5ef0] (057+064/269) Accurately ripped 13 [28411f68|9386b125] (057+063/266) Accurately ripped 14 [a6582735|24a0a41a] (057+061/265) Accurately ripped 15 [e28cb11d|94871061] (055+064/263) Accurately ripped 16 [e3c6806b|572bfe4e] (057+063/266) Accurately ripped 17 [78b84bbe|97a01cba] (057+063/266) Accurately ripped 18 [7a19808b|00f305e1] (057+062/263) Accurately ripped 19 [8ce0d911|2ad26ee0] (056+062/262) Accurately ripped 20 [17d17cdf|38e454e7] (057+063/266) Accurately ripped 21 [2984796a|dd07f434] (057+063/266) Accurately ripped 22 [b36fa336|61e29def] (057+063/260) Accurately ripped 23 [4d1cad7b|e1b0b1e0] (057+063/266) Accurately ripped 24 [248fe056|84e97b5b] (056+063/262) Accurately ripped 25 [3c2c5f98|b8ec1779] (057+064/262) Accurately ripped 26 [ff88297c|b17b563e] (056+062/258) Accurately ripped 27 [c8febc0c|4ed63f42] (056+064/262) Accurately rippedOffsetted by -1634: 01 [d0426217] (006/264) Accurately ripped 02 [55c1c1c3] (006/269) Accurately ripped 03 [fe84220b] (006/267) Accurately ripped 04 [6cb8453e] (006/266) Accurately ripped 05 [f76cde8f] (006/266) Accurately ripped 06 [85829ed6] (006/268) Accurately ripped 07 [11376cc8] (006/266) Accurately ripped 08 [5f6b4d59] (006/268) Accurately ripped 09 [679b4d5e] (006/267) Accurately ripped 10 [7e74ecf3] (006/267) Accurately ripped 11 [fe8b2a4b] (006/268) Accurately ripped 12 [a40c18ff] (006/269) Accurately ripped 13 [c41e81ce] (006/266) Accurately ripped 14 [e3f24ed5] (006/265) Accurately ripped 15 [968126df] (006/263) Accurately ripped 16 [ec8e7456] (006/266) Accurately ripped 17 [e290460b] (006/266) Accurately ripped 18 [04a54fa7] (005/263) Accurately ripped 19 [5742d1dc] (006/262) Accurately ripped 20 [2a4a4e0b] (006/266) Accurately ripped 21 [a7bc699c] (006/266) Accurately ripped 22 [a700825f] (006/260) Accurately ripped 23 [a0e8486d] (006/266) Accurately ripped 24 [740afc34] (006/262) Accurately ripped 25 [40ebcb8b] (006/262) Accurately ripped 26 [018192c0] (006/258) Accurately ripped 27 [d48d6d28] (006/262) Accurately rippedOffsetted by -1630: 01 [cc52443c] (003/264) Accurately ripped 02 [fc638735] (003/269) Accurately ripped 03 [85a45ac8] (003/267) Accurately ripped 04 [9ab62ce4] (003/266) Accurately ripped 05 [4ff16819] (003/266) Accurately ripped 06 [e727e0c9] (003/268) Accurately ripped 07 [b6a613fd] (003/266) Accurately ripped 08 [aad6a8ad] (003/268) Accurately ripped 09 [40858df4] (003/267) Accurately ripped 10 [c63048d4] (003/267) Accurately ripped 11 [ad27e359] (003/268) Accurately ripped 12 [bd8fcd13] (003/269) Accurately ripped 13 [42e05b5a] (003/266) Accurately ripped 14 [2ea40abd] (003/265) Accurately ripped 15 [5472c84d] (003/263) Accurately ripped 16 [d11a6e44] (003/266) Accurately ripped 17 [d88bffb0] (003/266) Accurately ripped 18 [85e9b3c1] (003/263) Accurately ripped 19 [ae43828c] (003/262) Accurately ripped 20 [7954b1d2] (003/266) Accurately ripped 21 [0d6c5edd] (003/266) Accurately ripped 22 [742c0cbf] (003/260) Accurately ripped 23 [21c04299] (003/266) Accurately ripped 24 [aea8fcc6] (003/262) Accurately ripped 25 [910157e1] (003/262) Accurately ripped 26 [11cb89b8] (003/258) Accurately ripped 27 [1ea7be28] (003/262) Accurately rippedOffsetted by -1612: 01 [c422ac88] (026/264) Accurately ripped 02 [1693127a] (026/269) Accurately ripped 03 [d55efc83] (026/267) Accurately ripped 04 [6c913bc1] (026/266) Accurately ripped 05 [5f17d23c] (026/266) Accurately ripped 06 [b389c505] (026/268) Accurately ripped 07 [e5786a47] (026/266) Accurately ripped 08 [3f739c45] (026/268) Accurately ripped 09 [9f374c8b] (026/267) Accurately ripped 10 [c9269fc5] (026/267) Accurately ripped 11 [1576cc5b] (026/268) Accurately ripped 12 [206cc215] (026/269) Accurately ripped 13 [dcb917d4] (025/266) Accurately ripped 14 [e16e8718] (026/265) Accurately ripped 15 [9449af43] (025/263) Accurately ripped 16 [e9a1aa19] (026/266) Accurately ripped 17 [b9de355f] (026/266) Accurately ripped 18 [351950ff] (026/263) Accurately ripped 19 [44550931] (025/262) Accurately ripped 20 [9c533387] (026/266) Accurately ripped 21 [35291b50] (026/266) Accurately ripped 22 [bf4f2e63] (026/260) Accurately ripped 23 [f8944ae8] (026/266) Accurately ripped 24 [dca0664f] (026/262) Accurately ripped 25 [1abeaf77] (025/262) Accurately ripped 26 [5b186114] (025/258) Accurately ripped 27 [ec1e2aa8] (024/262) Accurately rippedOffsetted by -955: 01 [53704992] (021/264) Accurately ripped 02 [a78b6b23] (021/269) Accurately ripped 03 [6ed1ce1e] (021/267) Accurately ripped 04 [14519220] (021/266) Accurately ripped 05 [1efeb059] (021/266) Accurately ripped 06 [fa759a91] (021/268) Accurately ripped 07 [20fab862] (019/266) Accurately ripped 08 [aed4a87d] (020/268) Accurately ripped 09 [fcd82e62] (020/267) Accurately ripped 10 [afed54cc] (020/267) Accurately ripped 11 [56d627b2] (020/268) Accurately ripped 12 [758b06a3] (020/269) Accurately ripped 13 [dcfe799b] (020/266) Accurately ripped 14 [6c7a40a7] (020/265) Accurately ripped 15 [81a791eb] (020/263) Accurately ripped 16 [523c9952] (020/266) Accurately ripped 17 [6b7d0ed0] (020/266) Accurately ripped 18 [2885aa37] (020/263) Accurately ripped 19 [1b530d78] (020/262) Accurately ripped 20 [d019ac1f] (020/266) Accurately ripped 21 [4b94c2fa] (020/266) Accurately ripped 22 [1d86fbae] (018/260) Accurately ripped 23 [e37608e7] (020/266) Accurately ripped 24 [ab2ddd4f] (020/262) Accurately ripped 25 [bb72fac5] (019/262) Accurately ripped 26 [4e8d15b2] (019/258) Accurately ripped 27 [ddd99038] (019/262) Accurately rippedOffsetted by 2740: 01 [c547a671] (007/264) Accurately ripped 02 [51af7d04] (008/269) Accurately ripped 03 [57a9ddf0] (008/267) Accurately ripped 04 [7480f04b] (008/266) Accurately ripped 05 [19ded9ca] (008/266) Accurately ripped 06 [abed9840] (008/268) Accurately ripped 07 [e30f8fe8] (008/266) Accurately ripped 08 [0aeb62f9] (008/268) Accurately ripped 09 [5ddd5e6d] (008/267) Accurately ripped 10 [8e2bb36a] (008/267) Accurately ripped 11 [4f0fe4a9] (008/268) Accurately ripped 12 [fd72a89a] (009/269) Accurately ripped 13 [5b956068] (008/266) Accurately ripped 14 [7fc4d3c8] (008/265) Accurately ripped 15 [d54abf0a] (008/263) Accurately ripped 16 [5dd14812] (008/266) Accurately ripped 17 [5036cf3e] (008/266) Accurately ripped 18 [7aa02a6e] (008/263) Accurately ripped 19 [e473fa19] (008/262) Accurately ripped 20 [ee4220ab] (008/266) Accurately ripped 21 [ceb75d0f] (008/266) Accurately ripped 22 [40c6d718] (008/260) Accurately ripped 23 [857c8112] (008/266) Accurately ripped 24 [41535344] (008/262) Accurately ripped 25 [3eb9abf4] (008/262) Accurately ripped 26 [9571ff14] (008/258) Accurately ripped 27 [e4028ba0] (008/262) Accurately rippedOffsetted by -2294: 01 [0870bd3b] (002/264) Accurately ripped 02 [166db4d0] (002/269) Accurately ripped 03 [ee610926] (002/267) Accurately ripped 04 [671e54d8] (002/266) Accurately ripped 05 [4959c79d] (002/266) Accurately ripped 06 [2844f4d3] (002/268) Accurately ripped 07 [d98dd9c7] (002/266) Accurately ripped 08 [904abd85] (002/268) Accurately ripped 09 [8784c46e] (002/267) Accurately ripped 10 [4f5a960d] (002/267) Accurately ripped 11 [f08f3366] (002/268) Accurately ripped 12 [0f89717a] (002/269) Accurately ripped 13 [249ecd2d] (002/266) Accurately ripped 14 [05cbfde5] (002/265) Accurately ripped 15 [751b6430] (002/263) Accurately ripped 16 [fb2e9c9d] (002/266) Accurately ripped 17 [a9c74aa2] (002/266) Accurately ripped 18 [44017ebb] (002/263) Accurately ripped 19 [55452404] (002/262) Accurately ripped 20 [fdd44172] (002/266) Accurately ripped 21 [e28773a7] (002/266) Accurately ripped 22 [a9b08b67] (000/260) No match (V2 was not tested) 23 [35c1ec0a] (002/266) Accurately ripped 24 [032005f4] (000/262) No match (V2 was not tested) 25 [2550da66] (002/262) Accurately ripped 26 [81d564e8] (002/258) Accurately ripped 27 [8902740f] (002/262) Accurately rippedOffsetted by -1834: 01 [50b8b638] (000/264) No match (V2 was not tested) 02 [92555a4a] (000/269) No match (V2 was not tested) 03 [9d0ab9df] (000/267) No match (V2 was not tested) 04 [b5e1f00f] (000/266) No match (V2 was not tested) 05 [f8f8ae16] (000/266) No match (V2 was not tested) 06 [d53e15b2] (000/268) No match (V2 was not tested) 07 [c0f48632] (000/266) No match (V2 was not tested) 08 [d7388e0f] (000/268) No match (V2 was not tested) 09 [efe80c68] (000/267) No match (V2 was not tested) 10 [6ebef1d7] (000/267) No match (V2 was not tested) 11 [aed6858e] (000/268) No match (V2 was not tested) 12 [0458a512] (000/269) No match (V2 was not tested) 13 [9618ee62] (000/266) No match (V2 was not tested) 14 [3d5a37c7] (000/265) No match (V2 was not tested) 15 [1b498e62] (000/263) No match (V2 was not tested) 16 [a691427e] (000/266) No match (V2 was not tested) 17 [c6cea6d7] (000/266) No match (V2 was not tested) 18 [ccfe7df2] (000/263) No match (V2 was not tested) 19 [ddbbe2ff] (000/262) No match (V2 was not tested) 20 [f1bfe2c9] (000/266) No match (V2 was not tested) 21 [a78c19bb] (000/266) No match (V2 was not tested) 22 [056d59ab] (000/260) No match (V2 was not tested) 23 [9b20f5c3] (000/266) No match (V2 was not tested) 24 [f202a886] (000/262) No match (V2 was not tested) 25 [44a19717] (000/262) No match (V2 was not tested) 26 [d30f5650] (000/258) No match (V2 was not tested) 27 [22ab217c] (000/262) No match (V2 was not tested)

Track Peak [ CRC32 ] [W/O NULL] [ LOG ] -- 98,8 [7654D7E3] [A7AA94EA] 01 96,6 [CBEA5303] [3FCD7044] CRC32 02 98,8 [A87BABFC] [8BF076F6] CRC32 03 96,6 [A0216D43] [A1BCF161] CRC32 04 96,6 [9751DDE5] [1534B43C] CRC32 05 96,6 [74B5904A] [2EEDAC5E] CRC32 06 96,6 [FB64A4D1] [7D50EA75] CRC32 07 97,3 [4E461BEC] [E554F404] CRC32 08 96,6 [61D821DD] [24BE8669] CRC32 09 91,1 [53E145BB] [55BFBBCA] CRC32 10 96,6 [8D18B886] [E81A95BE] CRC32 11 96,6 [AA3ADB9D] [AC0364C2] CRC32 12 96,6 [5C5AC05D] [74A96F83] CRC32 13 96,6 [D6F93370] [A2FC02EB] CRC32 14 96,6 [0F26D931] [89EFC332] CRC32 15 96,6 [2B92BB18] [87613EE0] CRC32 16 96,6 [662361D1] [4EF3D603] CRC32 17 96,6 [52BEE258] [AAF811A0] CRC32 18 96,6 [51C0946B] [DB09BBA3] CRC32 19 98,8 [B356A09E] [C8F911B3] CRC32 20 96,6 [48178D10] [851F1A12] CRC32 21 96,6 [AB3FF9C5] [390A1EB8] CRC32 22 96,6 [64BE8061] [0571CB9E] CRC32 23 96,6 [EB03F428] [A0428FBC] CRC32 24 70,0 [05F7DB09] [FA1A00D6] CRC32 25 96,6 [E7EE53B1] [A3346583] CRC32 26 96,6 [C64B4A66] [8533D9BC] CRC32 27 96,6 [A23552E7] [D4D79E82] CRC32


Трекер:  [ 04-Июл-2017 23:06 ]

  

Скачать .torrent

Размер .torrent файла 23 KB


Размер: 505 MB
Хэш (hash) релиза: 63b5ca75a002320006bd480bbab06978a6349f11

Торренты, похожие на Прирождённые убийцы Natural Born Killers скачать торрент

Форум Название Автор Размер S L Добавлен
Саундтреки к фильмам и мультфильмам (mp3) ·· (Soundtrack) Прирождённые убийцы / Natural Born Killers - 1994, MP3 (tracks), 320 kbps Phoenix 181613804173 MB 0 0 1292265148

21:32

13-Дек-10

Еще никто не оставлял запись к записи скачать торрент Прирождённые убийцы Natural Born Killers . Будь первым!

!Обратная связь