Скачать через торрент [MULT] Ледниковый период: Столкновение неизбежно Ice Age: Collision Course бесплатно русская версия torrent активатор

Если у вас наблюдаются проблемы со скриншотами, переходом по ссылками, скачиванием торрентов - проблемы в блокировщике рекламы AdBlock. #хорошегоДня!


Статистика раздачи
Размер:  427 MB   |    Зарегистрирован:  5 месяцев 11 дней   |    .torrent скачан:  40 раз   |   
Раздают:  1  
   
Загрузка...
 
Автор Сообщение

Galfimbul

avatar Galfimbul


Ледниковый период: Столкновение неизбежно / Ice Age: Collision Course[Локализованный видеоряд]
Год выпуска: 2016
Страна: Twentieth Century Fox Film Corporation
Жанр: мультфильм, фантастика, комедия, приключения, семейный
Продолжительность: 01:34:32
Перевод: Русский Профессиональный (полное дублирование) Blu-ray EUR
Субтитры: нетРежиссеры: Майк Тёрмайер / Mike Thurmeier, Гален Т. Чу / Galen T. ChuРоли озвучивали: Рэй Романо, Джон Легуизамо, Дэнис Лири, Куин Латифа, Шонн Уильям Скотт, Саймон Пегг, Дженнифер Лопез, Нил Тайсон, Джесси Тайлер Фергюсон, Джесси Джей и другие.Описание: Отчаянная погоня за неуловимым желудем катапультирует Скрата прямо в космос, где он случайно запускает целую серию космических событий. Именно они изменят весь мир Ледникового периода и станут реальной угрозой для него. Чтобы спастись, Сид, Мэнни, Диего и остальные звери должны покинуть свои дома, отправиться в забавное и захватывающее приключение в экзотические новые земли и встретиться со множеством красочных новых персонажей. Релиз группы Качество: HDRip / рип с BDRip 720p
Формат: MP4
Видео кодек: XviD
Аудио кодек: AAC
Видео: 480x200 AR:2.40 500 kbps 23.976 fps
Аудио: [Russian] 2ch 48 kHz 128 kbps - [Dub] Профессиональный (полное дублирование) Blu-ray 1080p EUR
GeneralComplete name : D:\Torrents\Ice Age Collision Course.(Localizovannuy_videoryad).2016.HDRip.XviD.480x.rip by Frost O.S).mp4Format : MPEG-4Format profile : Base MediaCodec ID : isom (isom)File size : 427 MiBDuration : 1 h 34 minOverall bit rate mode : VariableOverall bit rate : 632 kb/sEncoded date : UTC 2017-07-06 17:11:13Tagged date : UTC 2017-07-06 17:11:13Writing application : My MP4Box GUI 0.6.0.6

VideoID : 1Format : MPEG-4 VisualFormat profile : Advanced Simple@L5Format settings, BVOP : YesFormat settings, QPel : NoFormat settings, GMC : No warppointsFormat settings, Matrix : CustomCodec ID : 20Duration : 1 h 34 minBit rate mode : VariableBit rate : 500 kb/sMaximum bit rate : 3 111 kb/sWidth : 480 pixelsHeight : 200 pixelsDisplay aspect ratio : 2.40:1Frame rate mode : VariableFrame rate : 23.976 (24000/1001) FPSMinimum frame rate : 11.988 FPSMaximum frame rate : 23.976 FPSColor space : YUVChroma subsampling : 4:2:0Bit depth : 8 bitsScan type : ProgressiveCompression mode : LossyBits/(Pixel*Frame) : 0.217Stream size : 338 MiB (79%)Writing library : XviD 1.2.1 (UTC 2008-12-04)Encoded date : UTC 2017-07-06 17:11:13Tagged date : UTC 2017-07-06 17:11:23

AudioID : 2Format : AACFormat/Info : Advanced Audio CodecFormat profile : LCCodec ID : 40Duration : 1 h 34 minBit rate mode : VariableBit rate : 128 kb/sMaximum bit rate : 138 kb/sChannel(s) : 2 channelsChannel positions : Front: L RSampling rate : 48.0 kHzFrame rate : 46.875 FPS (1024 spf)Compression mode : LossyStream size : 86.6 MiB (20%)Title : Russian / Dub, Blu-ray EUREncoded date : UTC 2017-07-06 17:11:19Tagged date : UTC 2017-07-06 17:11:23


Трекер:  [ 06-Июл-2017 20:42 ]

  

Скачать .torrent

Размер .torrent файла 17 KB


Размер: 427 MB
Хэш (hash) релиза: 6e832f023eb4e7ca27fd1b1388d7adbd3511078c

Еще никто не оставлял запись к записи скачать торрент [MULT] Ледниковый период: Столкновение неизбежно Ice Age: Collision Course . Будь первым!

!Обратная связь